.
Авторизация | Регистрация
Хочешь лучшие торренты? Добавь свой email!
Добавить

Торрент скачать бесплатно

» » Чудо-женщина / Wonder Woman (2017) HDRip [H.264] [MP4|1280x534] торрент скачать бесплатно




    Чудо-женщина / Wonder Woman (2017) HDRip [H.264] [MP4|1280x534] торрент скачать бесплатно

    Опубликовал: Админ | Дата: 8-10-2017, 05:00 | Просмотров: 0

    Производство: США, Китай, Гонконг, Великобритания, Италия, Канада, Новая Зеландия/Warner Bros. Pictures
    Жанр: Фантастика, Фэнтези, Боевик, Приключения
    Режиссер: Пэтти Дженкинс
    Продюсер: Джон Берг, Уэсли Коллер, Томми Гормли
    Актеры: Галь Гадот, Робин Райт, Дэвид Тьюлис, Конни Нильсен, Крис Пайн, Елена Анайя, Люси Дэвис, Юэн Бремнер, Даутцен Крёз, Дэнни Хьюстон

    Описание

    Перед тем как стать Чудо-Женщиной, она была Дианой — принцессой амазонок, обученной быть непобедимой воительницей. И когда на берегах ограждённого от внешнего мира райского острова, который служил ей родиной, терпит крушение американский пилот и рассказывает о серьёзном конфликте, бушующем во внешнем мире, Диана покидает свой дом, чтобы справиться с этой угрозой. И там, сражаясь бок о бок с человеком в войне за мир, Диана обнаружит всю полноту своей власти… и своё истинное предназначение.

    Возраст: 16+ (зрителям, достигшим 16 лет)
    Рейтинг MPAA: PG-13 (детям до 13 лет просмотр нежелателен)
    Дата мировой премьеры: 15 мая 2017
    Дата российской премьеры: 1 июня 2017, Каро-Премьер 3D
    Продолжительность: 02: 21: 16
    Качество видео: HDRip
    Перевод: Дублированный (Лицензия BD EUR)
    Субтитры: отсутствуют
    Видео: AVC/H.264, 1280x534, ~1283 Kbps
    Аудио: AAC, 2 ch, ~192 Kbps

    Общее
    Полное имя : E: \Download\Chudo Zhenschina 2017 720p.mp4
    Формат : MPEG-4
    Профиль формата : Base Media/Version 2
    Идентификатор кодека : mp42 (isom/mp42)
    Размер файла : 1, 46 Гбайт
    Продолжительность : 2 ч. 21 м.
    Режим общего битрейта : Переменный
    Общий поток : 1477 Кбит/сек
    Дата кодирования : UTC 2017-10-06 12: 01: 16
    Дата пометки : UTC 2017-10-06 12: 01: 16
    gsst : 0
    gstd : 8476001
    Видео
    Идентификатор : 1
    Формат : AVC
    Формат/Информация : Advanced Video Codec
    Профиль формата : High@L3.1
    Настройки формата : CABAC/1 Ref Frames
    Параметр CABAC формата : Да
    Параметр RefFrames формата : 1 кадр
    Идентификатор кодека : avc1
    Идентификатор кодека/Информация : Advanced Video Coding
    Продолжительность : 2 ч. 21 м.
    Битрейт : 1283 Кбит/сек
    Максимальный битрейт : 6386 Кбит/сек
    Ширина : 1280 пикселей
    Высота : 534 пикселя
    Соотношение сторон : 2, 40: 1
    Режим частоты кадров : Постоянный
    Частота кадров : 23, 976 (24000/1001) кадра/сек
    Цветовое пространство : YUV
    Субдискретизация насыщенности : 4: 2: 0
    Битовая глубина : 8 бит
    Тип развёртки : Прогрессивная
    Бит/(Пиксели*Кадры) : 0.078
    Размер потока : 1, 27 Гбайт (87%)
    Дата пометки : UTC 2017-10-06 12: 01: 51
    Цветовой диапазон : Limited
    Основные цвета : BT.709
    Характеристики трансфера : BT.709
    Коэффициенты матрицы : BT.709
    Аудио
    Идентификатор : 2
    Формат : AAC
    Формат/Информация : Advanced Audio Codec
    Профиль формата : LC
    Идентификатор кодека : mp4a-40-2
    Продолжительность : 2 ч. 21 м.
    Вид битрейта : Переменный
    Битрейт : 192 Кбит/сек
    Максимальный битрейт : 202 Кбит/сек
    Каналы : 2 канала
    Расположение каналов : Front: L R
    Частота : 44, 1 КГц
    Частота кадров : 43, 066 кадра/сек (1024 SPF)
    Метод сжатия : С потерями
    Размер потока : 194 Мбайт (13%)
    Заголовок : IsoMedia File Produced by Google, 5-11-2011
    Язык : Russian
    Дата кодирования : UTC 2017-10-06 12: 01: 37
    Дата пометки : UTC 2017-10-06 12: 01: 51
    Скриншоты:


    Все одноименные релизы в Клубе
    Время раздачи: с 11: 00 до 23: 00 (до появления первых 3-5 скачавших)

    Чудо-женщина/Wonder Woman (2017) HDRip [H.264] [MP4|1280x534]
    загрузка...
    Рейтинг →
     (голосов: 1, оценка 4/5, голосовать можно 1 раз )

    Другие торренты по теме:

  • Чудо-Женщина / Wonder Woman (2017) WEBRip [H.264 / 1080p] [Трейлер]
  • Чудо-женщина / Wonder Woman (2017) TS [AD]
  • Чудо-женщина / Wonder Woman (2017) WEBRip [H.264 / 1080p-LQ] [Звук с TS] [AD]
  • Чудо-женщина / Wonder Woman (2017) WEBRip [Звук с TS] [AD]
  • Чудо-женщина / Wonder Woman (2017) WEBRip [H.264 / 1080p-LQ] [MVO] [AD]
  • Чудо-женщина / Wonder Woman (2017) WEBRip [H.264 / 1080p-LQ] [Звук с TS]
  • Чудо-женщина / Wonder Woman (2017) AC3 2.0 [Solod]
  • Чудо-женщина / Wonder Woman (2017) WEBRip [H.264 / 1080p-LQ] [Line] [AD]


    • Комментарии (0):

      Информация

      Информация

        Посетители, находящиеся в группе Гости, не могут оставлять комментарии в данной новости.

        ↓ Меню




        ↓ Опрос

        Вы добавили сайт в закладки?
        Да
        Нет


        Top 10 за месяц (КПК и мобильные)