.
Авторизация | Регистрация
Хочешь лучшие торренты? Добавь свой email!
Добавить

Торрент скачать бесплатно

» » Гоголь. Начало (2017) WEBRip [H.264] [MP4|1024x430] торрент скачать бесплатно




    Гоголь. Начало (2017) WEBRip [H.264] [MP4|1024x430] торрент скачать бесплатно

    Опубликовал: Админ | Дата: 2-10-2017, 05:00 | Просмотров: 0

    Производство: Россия, Продюсерский центр Среда
    Жанр: Приключения, Триллер, Детектив
    Режиссер: Егор Баранов
    Актеры: Александр Петров, Олег Меньшиков, Евгений Сытый, Таисия Вилкова, Артем Ткаченко, Юлия Франц, Евгений Стычкин, Ян Цапник, Сергей Бадюк, Марта Тимофеева

    Описание

    Казаки, ведьмы, русалки, утопленницы и другие обитатели Диканьки встречаются лицом к лицу со своим создателем Николаем Гоголем, молодым писарем из Петербурга, который страдает загадочными припадками и может общаться с персонажами из потустороннего мира. Вместе со своим начальником, блестящим столичным следователем Яковым Гуро, начинающий писатель приезжает на Полтавщину расследовать таинственные убийства девушек. Здесь же он встречает свою любовь, которой суждено сыграть роковую роль в его судьбе. Но хватит ли юному литератору духу противостоять невообразимому? Ведь по слухам, которые активно разносят напуганные местные жители, за преступлениями стоит не кто иной, как сам Дьявол в обличии черного всадника.

    Возраст: 18+ (зрителям, достигшим 18 лет. запрещено для детей)
    Дата российской премьеры: 31 августа 2017, Каропрокат
    Продолжительность: 01: 46: 42
    Качество видео: WEBRip
    Перевод: Не требуется (русский) iTunes
    Субтитры: Отсутствуют
    Видео: AVC/H.264, 1024х430, ~2345 kb/s
    Аудио: AAC, 2 ch, 160 kb/s

    General
    Complete name : Гоголь.Начало(2017).mp4
    Format : MPEG-4
    Format profile : Base Media/Version 2
    Codec ID : mp42 (isom/iso2/avc1/mp41)
    File size : 1.87 GiB
    Duration : 1 h 46 min
    Overall bit rate mode : Variable
    Overall bit rate : 2 512 kb/s
    Movie name : Гоголь.Начало.2017NoNaMe-Club.rip.by.alien.09
    Encoded date : UTC 2017-09-30 21: 11: 22
    Tagged date : UTC 2017-09-30 21: 11: 22
    Writing application : HandBrake 1.0.7 2017040900
    Video
    ID : 1
    Format : AVC
    Format/Info : Advanced Video Codec
    Format profile : High@L3.1
    Format settings, CABAC : Yes
    Format settings, RefFrames : 4 frames
    Codec ID : avc1
    Codec ID/Info : Advanced Video Coding
    Duration : 1 h 46 min
    Bit rate : 2 345 kb/s
    Width : 1 024 pixels
    Height : 430 pixels
    Display aspect ratio : 2.40: 1
    Frame rate mode : Variable
    Frame rate : 23.976 (24000/1001) FPS
    Minimum frame rate : 23.974 FPS
    Maximum frame rate : 23.981 FPS
    Color space : YUV
    Chroma subsampling : 4: 2: 0
    Bit depth : 8 bits
    Scan type : Progressive
    Bits/(Pixel*Frame) : 0.222
    Stream size : 1.75 GiB (93%)
    Writing library : x264 core 148 r2708 86b7198
    Encoding settings : cabac=1/ref=3/deblock=1: 0: 0/analyse=0x3: 0x113/me=hex/subme=7/psy=1/psy_rd=1.00: 0.00/mixed_ref=1/me_range=16/chroma_me=1/trellis=1/8x8dct=1/cqm=0/deadzone=21, 11/fast_pskip=1/chroma_qp_offset=-2/threads=12/lookahead_threads=2/sliced_threads=0/nr=0/decimate=1/interlaced=0/bluray_compat=0/constrained_intra=0/bframes=3/b_pyramid=2/b_adapt=1/b_bias=0/direct=1/weightb=1/open_gop=0/weightp=2/keyint=240/keyint_min=24/scenecut=40/intra_refresh=0/rc_lookahead=40/rc=2pass/mbtree=1/bitrate=2345/ratetol=1.0/qcomp=0.60/qpmin=0/qpmax=69/qpstep=4/cplxblur=20.0/qblur=0.5/vbv_maxrate=14000/vbv_bufsize=14000/nal_hrd=none/filler=0/ip_ratio=1.40/aq=1: 1.00
    Encoded date : UTC 2017-09-30 21: 11: 22
    Tagged date : UTC 2017-09-30 21: 11: 22
    Color range : Limited
    Color primaries : BT.709
    Transfer characteristics : BT.709
    Matrix coefficients : BT.709
    Menus : 3
    Audio
    ID : 2
    Format : AAC
    Format/Info : Advanced Audio Codec
    Format profile : LC
    Codec ID : 40
    Duration : 1 h 46 min
    Bit rate mode : Variable
    Bit rate : 160 kb/s
    Channel(s) : 2 channels
    Channel positions : Front: L R
    Sampling rate : 48.0 kHz
    Frame rate : 46.875 FPS (1024 SPF)
    Compression mode : Lossy
    Stream size : 122 MiB (6%)
    Title : Stereo/Stereo
    Language : Russian
    Default : Yes
    Alternate group : 1
    Encoded date : UTC 2017-09-30 21: 11: 22
    Tagged date : UTC 2017-09-30 21: 11: 22
    Menus : 3
    Menu
    ID : 3
    Codec ID : text
    Duration : 1 h 46 min
    Language : English
    Encoded date : UTC 2017-09-30 21: 11: 22
    Tagged date : UTC 2017-09-30 21: 11: 22
    Menu For : 1, 2
    00: 00: 00.000 : 1
    00: 05: 51.977 : 2
    00: 10: 17.117 : 3
    00: 15: 44.068 : 4
    00: 22: 17.795 : 5
    00: 27: 06.792 : 6
    00: 33: 22.417 : 7
    00: 40: 16.831 : 8
    00: 46: 53.227 : 9
    00: 54: 39.318 : 10
    01: 00: 58.613 : 11
    01: 07: 46.187 : 12
    01: 13: 40.333 : 13
    01: 20: 47.843 : 14
    01: 26: 59.965 : 15
    01: 32: 11.151 : 16
    01: 38: 34.534 : 17
    Bit rate mode : VBR
    Скриншоты:


    Все одноименные релизы в Клубе
    Время раздачи: 24/7 (до появления первых 3-5 скачавших)

    Гоголь. Начало (2017) WEBRip [H.264] [MP4|1024x430]
    загрузка...
    Рейтинг →
     (голосов: 1, оценка 3/5, голосовать можно 1 раз )

    Другие торренты по теме:

  • Гоголь. Начало (2017) CamRip
  • Гоголь. Начало (2017) WEB-DL [H.264 / 1080p-LQ]
  • Гоголь. Начало (2017) WEB-DLRip
  • Гоголь. Начало (2017) WEB-DLRip [H.264]
  • Гоголь. Начало (2017) WEB-DL [H.264 / 720p-LQ]
  • Гоголь. Начало (2017) WEB-DLRip [H.264]
  • Гоголь. Начало (2017) WEB-DLRip [576p] iPad


    • Комментарии (0):

      Информация

      Информация

        Посетители, находящиеся в группе Гости, не могут оставлять комментарии в данной новости.

        ↓ Меню




        ↓ Опрос

        Вы добавили сайт в закладки?
        Да
        Нет


        Top 10 за месяц (КПК и мобильные)