.
Авторизация | Регистрация
Хочешь лучшие торренты? Добавь свой email!
Добавить

Торрент скачать бесплатно

» » Человек-паук: Возвращение домой / Spider-Man: Homecoming (2017) WEBRip [H.264] [MP4|1280x720] [AD] торрент скачать бесплатно




    Человек-паук: Возвращение домой / Spider-Man: Homecoming (2017) WEBRip [H.264] [MP4|1280x720] [AD] торрент скачать бесплатно

    Опубликовал: Админ | Дата: 29-09-2017, 05:00 | Просмотров: 0

    Производство: США/Columbia Pictures, Marvel Studios, Pascal Pictures
    Жанр: Фантастика, Боевик, Приключения, Семейный
    Режиссер: Джон Уоттс
    Продюсер: Виктория Алонсо, Ави Арад, Митчелл Белл
    Актеры: Том Холланд, Роберт Дауни мл., Майкл Китон, Мариса Томей, Джон Фавро, Джейкоб Баталон, Зендея, Лора Хэрриер, Тони Револори, Дональд Гловер и др.

    Описание

    После исторической встречи с командой Мстителей Питер Паркер возвращается домой, стараясь зажить обычной жизнью под опекой своей тёти Мэй. Но теперь за Питером приглядывает ещё кое-что... Тони Старк видел Человека-Паука в деле и должен стать его наставником. Когда новый злодей Стервятник угрожает уничтожить всё, что дорого Питеру, приходит время доказать всем, что такое настоящий супергерой.

    Возраст: 16+ (зрителям, достигшим 16 лет)
    Рейтинг MPAA: PG-13 (детям до 13 лет просмотр нежелателен)
    Дата мировой премьеры: 28 июня 2017
    Дата российской премьеры: 6 июля 2017
    Продолжительность: 02: 13: 41
    Качество видео: WEBRip
    Перевод: Дублированный
    Субтитры: нет
    Реклама: Присутствуют текстовые, аудио и видео вставки рекламы
    Видео: AVC/H.264, 1280х720, ~2008 kbps
    Аудио: AAC, 2 ch, ~157 kbps, 48.0 kHz

    Общее
    Полное имя : C: UsersUserDesktopSpider-Man_Homecoming.mp4
    Формат : MPEG-4
    Идентификатор кодека : M4V (M4V /mp42/isom)
    Размер файла : 2, 02 Гбайт
    Продолжительность : 2 ч. 13 м.
    Режим общего битрейта : Переменный
    Общий поток : 2168 Кбит/сек
    Дата кодирования : UTC 2017-09-27 13: 46: 52
    Дата пометки : UTC 2017-09-27 13: 47: 54
    ©TIM : 00: 00: 00: 00
    ©TSC : 30000
    ©TSZ : 1001
    Видео
    Идентификатор : 1
    Формат : AVC
    Формат/Информация : Advanced Video Codec
    Профиль формата : Baseline@L3.1
    Настройки формата : 2 Ref Frames
    Параметр CABAC формата : Нет
    Параметр RefFrames формата : 2 кадра
    Идентификатор кодека : avc1
    Идентификатор кодека/Информация : Advanced Video Coding
    Продолжительность : 2 ч. 13 м.
    Продолжительность оригинала : 2 ч. 13 м.
    Битрейт : 2008 Кбит/сек
    Ширина : 1280 пикселей
    Высота : 720 пикселей
    Соотношение сторон : 16: 9
    Режим частоты кадров : Постоянный
    Частота кадров : 29, 970 (30000/1001) кадров/сек
    Стандарт вещания : NTSC
    Цветовое пространство : YUV
    Субдискретизация насыщенности : 4: 2: 0
    Битовая глубина : 8 бит
    Тип развёртки : Прогрессивная
    Бит/(Пиксели*Кадры) : 0.073
    Размер потока : 1, 88 Гбайт (93%)
    Размер потока оригинала : 1, 88 Гбайт (93%)
    Язык : English
    Дата кодирования : UTC 2017-09-27 13: 46: 52
    Дата пометки : UTC 2017-09-27 13: 46: 52
    Цветовой диапазон : Limited
    Основные цвета : BT.709
    Характеристики трансфера : BT.709
    Коэффициенты матрицы : BT.709
    Аудио
    Идентификатор : 2
    Формат : AAC
    Формат/Информация : Advanced Audio Codec
    Профиль формата : LC
    Идентификатор кодека : mp4a-40-2
    Продолжительность : 2 ч. 13 м.
    Продолжительность оригинала : 2 ч. 13 м.
    Вид битрейта : Переменный
    Битрейт : 157 Кбит/сек
    Максимальный битрейт : 254 Кбит/сек
    Каналы : 2 канала
    Расположение каналов : Front: L R
    Частота : 48, 0 КГц
    Частота кадров : 46, 875 кадров/сек (1024 SPF)
    Метод сжатия : С потерями
    Размер потока : 150 Мбайт (7%)
    Размер потока оригинала : 150 Мбайт (7%)
    Язык : English
    Дата кодирования : UTC 2017-09-27 13: 46: 52
    Дата пометки : UTC 2017-09-27 13: 46: 52
    Скриншоты:


    Все одноименные релизы в Клубе
    Время раздачи: Пн-Пт с 18: 00 до 22: 00, Сб-Вс с 09: 00 до 23: 30 (до появления первых 3-5 скачавших)

    Человек-паук: Возвращение домой/Spider-Man: Homecoming (2017) WEBRip [H.264] [MP4|1280x720] [AD]
    загрузка...
    Рейтинг →
     (голосов: 1, оценка 3/5, голосовать можно 1 раз )

    Другие торренты по теме:

  • Человек-паук: Возвращение домой / Spider-Man: Homecoming (2017) WEBRip [H.264 / 1080p] [Трейлер]
  • Человек-паук: Возвращение домой / Spider-Man: Homecoming (2017) CAMRip [AD]
  • Человек-паук: Возвращение домой / Spider-Man: Homecoming (2017) CamRip [AD]
  • Человек-паук: Возвращение домой / Spider-Man: Homecoming (2017) TS [H.264 / 720p-LQ] [Звук с TS] [AD]
  • Человек-паук: Возвращение домой / Spider-Man: Homecoming (2017) WEB-DLRip [H.264 / 720p-LQ] [AD]
  • Человек-паук: Возвращение домой / Spider-Man: Homecoming (2017) WEB-DLRip [H.264 / 1080p-LQ] [Line] [AD]
  • Человек-паук: Возвращение домой / Spider-Man: Homecoming (2017) WEB-DLRip
  • Человек-паук: Возвращение домой / Spider-Man: Homecoming (2017) WEB-DL [H.264 / 1080p-LQ]


    • Комментарии (0):

      Информация

      Информация

        Посетители, находящиеся в группе Гости, не могут оставлять комментарии в данной новости.

        ↓ Меню




        ↓ Опрос

        Вы добавили сайт в закладки?
        Да
        Нет


        Top 10 за месяц (КПК и мобильные)