.
Авторизация | Регистрация
Хочешь лучшие торренты? Добавь свой email!
Добавить

Торрент скачать бесплатно

» » Мистер Мерседес / Mr. Mercedes (2017) WEB-DLRip [H.264] (сезон 1, серии 1-7 из 10) LostFilm [MP4|1280x720] [AD] торрент скачать бесплатно




    Мистер Мерседес / Mr. Mercedes (2017) WEB-DLRip [H.264] (сезон 1, серии 1-7 из 10) LostFilm [MP4|1280x720] [AD] торрент скачать бесплатно

    Опубликовал: Админ | Дата: 28-09-2017, 05:00 | Просмотров: 0

    Производство: США/Sonar Entertainment, Temple Hill Entertainment
    Жанр: Детектив, Триллер
    Режиссер: Джек Бендер
    Актеры: Брендан Глисон, Келли Линч, Гарри Тредэвэй, Мэри-Луиз Паркер, Джаррель Джером, Тьюзди Биби, Лаура Дулинг, Билл Келли, Дэйв МакДональд

    Описание

    Главный герой сериала — полицейский Билл Ходжесс, который недавно вышел в отставку. Одно из преступлений не смогло оставить детектива равнодушным: жестокий и циничный преступник направил угнанный автомобиль в толпу горожан. Ходжесс, у которого много свободного времени, решает самостоятельно найти бандита на Мерседесе, пока не случилось очередной трагедии...
    Сериал Мистер Мерседес является экранизацией романа Стивена Кинга.

    Возраст: 18+ (зрителям, достигшим 18 лет. запрещено для детей)
    Продолжительность: ~ 00: 55: 00 серия
    Качество видео: WEB-DLRip
    Перевод: Профессиональный (многоголосый закадровый) -LostFilm
    Реклама: Присутствует заставка и логотип LostFilm
    Субтитры: Отсутствуют
    Видео: AVC/H.264, 1280x720 (16: 9), ~4000 kbps
    Аудио: AAC, 2 ch, ~144 kbps - русский (многоголосый закадровый)
    General
    Complete name : D: NNMClubMr.Mercedes.S01.720p.WEB.LostFilmMr.Mercedes.S01E06.720p.WEB.rus.LostFilm.TV.mp4
    Format : MPEG-4
    Format profile : Base Media
    Codec ID : isom (isom)
    File size : 1.65 GiB
    Duration : 56 min 55 s
    Overall bit rate mode : Variable
    Overall bit rate : 4 149 kb/s
    Collection : Мистер Мерседес
    Season : 1
    Album : Мистер Мерседес, Сезон 1
    Album/Performer : Мистер Мерседес
    Part : 6
    Part/Position : 1
    Track name : Люди под дождем
    Track name/Position : 6
    Performer : Мистер Мерседес
    Genre : Drama
    ContentType : TV Show
    Recorded date : 2017
    Encoded date : UTC 2017-09-20 20: 35: 55
    Tagged date : UTC 2017-09-20 20: 35: 55
    Writing application : Yamb 2.1.0.0 http://yamb.unite-video.com/LostCoder
    Copyright : LostFilm.TV (c)
    Cover : Yes
    Part_ID : 106
    Video
    ID : 1
    Format : AVC
    Format/Info : Advanced Video Codec
    Format profile : High@L4.1
    Format settings, CABAC : Yes
    Format settings, RefFrames : 4 frames
    Codec ID : avc1
    Codec ID/Info : Advanced Video Coding
    Duration : 56 min 55 s
    Bit rate : 4 000 kb/s
    Maximum bit rate : 10.7 Mb/s
    Width : 1 280 pixels
    Height : 720 pixels
    Display aspect ratio : 16: 9
    Frame rate mode : Constant
    Frame rate : 29.970 (30000/1001) FPS
    Original frame rate : 29.970 (29970/1000) FPS
    Color space : YUV
    Chroma subsampling : 4: 2: 0
    Bit depth : 8 bits
    Scan type : Progressive
    Bits/(Pixel*Frame) : 0.145
    Stream size : 1.59 GiB (96%)
    Title : Imported with GPAC 0.4.6-DEV (internal rev. 5)
    Writing library : x264 core 112 r1834 a51816a
    Encoding settings : cabac=1/ref=4/deblock=1: -3: -2/analyse=0x3: 0x113/me=hex/subme=7/psy=1/psy_rd=1.00: 0.00/mixed_ref=1/me_range=16/chroma_me=1/trellis=1/8x8dct=1/cqm=0/deadzone=21, 11/fast_pskip=1/chroma_qp_offset=-2/threads=12/sliced_threads=0/nr=0/decimate=1/interlaced=0/constrained_intra=0/bframes=5/b_pyramid=2/b_adapt=1/b_bias=0/direct=1/weightb=1/open_gop=0/weightp=2/keyint=250/keyint_min=25/scenecut=40/intra_refresh=0/rc_lookahead=40/rc=2pass/mbtree=1/bitrate=4000/ratetol=1.0/qcomp=0.60/qpmin=0/qpmax=51/qpstep=4/cplxblur=20.0/qblur=0.5/vbv_maxrate=10000/vbv_bufsize=256000/ip_ratio=1.40/aq=1: 1.00/nal_hrd=none
    Encoded date : UTC 2017-09-20 15: 52: 24
    Tagged date : UTC 2017-09-20 20: 43: 03
    Audio
    ID : 2
    Format : AAC
    Format/Info : Advanced Audio Codec
    Format profile : LC
    Codec ID : 40
    Duration : 56 min 55 s
    Bit rate mode : Variable
    Bit rate : 144 kb/s
    Maximum bit rate : 239 kb/s
    Channel(s) : 2 channels
    Channel positions : Front: L R
    Sampling rate : 48.0 kHz
    Frame rate : 46.875 FPS (1024 SPF)
    Compression mode : Lossy
    Stream size : 59.6 MiB (4%)
    Encoded date : UTC 2017-09-20 20: 43: 01
    Tagged date : UTC 2017-09-20 20: 43: 03


    Мистер Мерседес/Mr. Mercedes (2017) WEB-DLRip [H.264] (сезон 1, серии 1-7 из 10) LostFilm [MP4|1280x720] [AD]
    загрузка...
    Рейтинг →
     (голосов: 1, оценка 3/5, голосовать можно 1 раз )

    Другие торренты по теме:

  • Мистер Мерседес / Mr. Mercedes (2017) WEBRip [H.264 / 720p-LQ] (сезон 1, серии 1 из 10) NewStudio (Обновляемая) [AD]
  • Мистер Мерседес / Mr. Mercedes (2017) WEBRip [H.264 / 720p-LQ] (сезон 1, серии 1 из 10) AlexFilm (Обновляемая) [AD]
  • Мистер Мерседес / Mr. Mercedes (2017) WEB-DL [H.264 / 720р-LQ] (сезон 1, серии 1 из 10) Good People (обновляемая)
  • Мистер Мерседес / Mr. Mercedes (2017) WEB-DL [H.264 / 720p-LQ] (сезон 1, серии 1-5 из 10) LostFilm (обновляемая)
  • Мистер Мерседес / Mr. Mercedes (2017) HDTVRip [H.264 / 1080i-LQ] (сезон 1, серии 1-10 из 10) SDI Media


    • Комментарии (0):

      Информация

      Информация

        Посетители, находящиеся в группе Гости, не могут оставлять комментарии в данной новости.

        ↓ Меню




        ↓ Опрос

        Вы добавили сайт в закладки?
        Да
        Нет


        Top 10 за месяц (КПК и мобильные)