.
Авторизация | Регистрация
Хочешь лучшие торренты? Добавь свой email!
Добавить

Торрент скачать бесплатно

» » Электрические сны Филипа К. Дика / Philip K. Dicks Electric Dreams (2017) WEB-DLRip [H.264] (сезон 1, серии 1-1 из 10) LostFilm [MP4|1280x720] [AD] торрент скачать бесплатно




    Электрические сны Филипа К. Дика / Philip K. Dicks Electric Dreams (2017) WEB-DLRip [H.264] (сезон 1, серии 1-1 из 10) LostFilm [MP4|1280x720] [AD] торрент скачать бесплатно

    Опубликовал: Админ | Дата: 22-09-2017, 05:00 | Просмотров: 1

    Производство: США, Великобритания
    Жанр: фантастика
    Режиссер: Дэвид Фарр, Франческа Грегорини, Том Харпер
    Актеры: Алена Леуан, Расс Панзарелла, Стив Бушеми, Эсси Дэвис, Ричард Мэдден, Джек Рейнор, Тимоти Сполл, Брайан Крэнстон

    Описание

    Сериал основан на произведениях культового фантаста Филипа К. Дика. Каждая серия посвящена одному рассказу писателя: Автофабрика, Унылый незнакомец, Проездной билет и др.

    Продолжительность: ~ 00: 53: 00 серия
    Качество видео: WEB-DLRip
    Перевод: Многоголосый закадровый, профессиональный|LostFilm|
    Реклама: Заставка и логотип|LostFilm|
    Субтитры: отсутствуют
    Видео: AVC, 1280x720 (16: 9), 4000 kbps
    Аудио#1: AAC, 48, 0 kHz, 2 ch, ~259 kbps — многоголосый закадровый (русский)
    General
    Complete name : D: MoviesotherЭлектрические сны Филипа К. Дика - Сезон 1Philip.K.Dicks.Electric.Dreams.S01E01.720p.WEB.rus.LostFilm.TV.mp4
    Format : MPEG-4
    Format profile : Base Media
    Codec ID : isom (isom)
    File size : 1.62 GiB
    Duration : 54 min 28 s
    Overall bit rate mode : Variable
    Overall bit rate : 4 251 kb/s
    Collection : Электрические сны Филипа К. Дика
    Season : 1
    Album : Электрические сны Филипа К. Дика, Сезон 1
    Album/Performer : Электрические сны Филипа К. Дика
    Part : 1
    Part/Position : 1
    Track name : Капюшонщик
    Track name/Position : 1
    Performer : Электрические сны Филипа К. Дика
    Genre : Sci-Fi Fantasy
    ContentType : TV Show
    Recorded date : 2017
    Encoded date : UTC 2017-09-19 16: 10: 52
    Tagged date : UTC 2017-09-19 16: 10: 52
    Writing application : Yamb 2.1.0.0 http://yamb.unite-video.com/LostCoder(c)
    Copyright : LostFilm.TV(c)
    Cover : Yes
    Comment : В мире, где телепаты живут бок о бок с обычными людьми, процветает социальное неравенство. Агент Росс получает в напарники девушку-телепата. Вместе им предстоит отыскать таинственного производителя масок, способных блокировать мозговые волны.
    Part_ID : 101
    Video
    ID : 1
    Format : AVC
    Format/Info : Advanced Video Codec
    Format profile : High@L4.1
    Format settings, CABAC : Yes
    Format settings, RefFrames : 4 frames
    Codec ID : avc1
    Codec ID/Info : Advanced Video Coding
    Duration : 54 min 28 s
    Bit rate : 4 000 kb/s
    Maximum bit rate : 28.4 Mb/s
    Width : 1 280 pixels
    Height : 720 pixels
    Display aspect ratio : 16: 9
    Frame rate mode : Constant
    Frame rate : 25.000 FPS
    Color space : YUV
    Chroma subsampling : 4: 2: 0
    Bit depth : 8 bits
    Scan type : Progressive
    Bits/(Pixel*Frame) : 0.174
    Stream size : 1.52 GiB (94%)
    Title : Imported with GPAC 0.4.6-DEV (internal rev. 5)
    Writing library : x264 core 112 r1834 a51816a
    Encoding settings : cabac=1/ref=4/deblock=1: -3: -2/analyse=0x3: 0x113/me=hex/subme=7/psy=1/psy_rd=1.00: 0.00/mixed_ref=1/me_range=16/chroma_me=1/trellis=1/8x8dct=1/cqm=0/deadzone=21, 11/fast_pskip=1/chroma_qp_offset=-2/threads=12/sliced_threads=0/nr=0/decimate=1/interlaced=0/constrained_intra=0/bframes=5/b_pyramid=2/b_adapt=1/b_bias=0/direct=1/weightb=1/open_gop=0/weightp=2/keyint=250/keyint_min=25/scenecut=40/intra_refresh=0/rc_lookahead=40/rc=2pass/mbtree=1/bitrate=4000/ratetol=1.0/qcomp=0.60/qpmin=0/qpmax=51/qpstep=4/cplxblur=20.0/qblur=0.5/vbv_maxrate=10000/vbv_bufsize=256000/ip_ratio=1.40/aq=1: 1.00/nal_hrd=none
    Encoded date : UTC 2017-09-19 05: 08: 45
    Tagged date : UTC 2017-09-19 16: 12: 07
    Audio
    ID : 2
    Format : AAC
    Format/Info : Advanced Audio Codec
    Format profile : LC
    Codec ID : 40
    Duration : 52 min 15 s
    Bit rate mode : Variable
    Bit rate : 259 kb/s
    Maximum bit rate : 322 kb/s
    Channel(s) : 2 channels
    Channel positions : Front: L R
    Sampling rate : 48.0 kHz
    Frame rate : 46.875 FPS (1024 SPF)
    Compression mode : Lossy
    Stream size : 96.8 MiB (6%)
    Encoded date : UTC 2017-09-19 16: 12: 05
    Tagged date : UTC 2017-09-19 16: 12: 07


    Электрические сны Филипа К. Дика/Philip K. Dicks Electric Dreams (2017) WEB-DLRip [H.264] (сезон 1, серии 1-1 из 10) LostFilm [MP4|1280x720] [AD]
    загрузка...
    Рейтинг →
     (голосов: 1, оценка 5/5, голосовать можно 1 раз )

    Другие торренты по теме:

  • Электрические сны Филипа К. Дика / Philip K. Dicks Electric Dreams (2017) WEB-DL [H.264 / 1080p-LQ] (сезон 1, серии 1 из 10) NewStudio (обновляемая)
  • Электрические сны Филипа К. Дика / Philip K. Dicks Electric Dreams (2017) WEBRip (сезон 1, серии 1-1 из 10) LostFilm (обновляемая)
  • Электрические сны Филипа К. Дика / Philip K. Dicks Electric Dream (2017) WEBRip [H.264 / 1080p-LQ] (сезон 1, серии 1-2 из 10) IdeaFilm (обновляемая) [AD]


    • Комментарии (0):

      Информация

      Информация

        Посетители, находящиеся в группе Гости, не могут оставлять комментарии в данной новости.

        ↓ Меню




        ↓ Опрос

        Вы добавили сайт в закладки?
        Да
        Нет


        Top 10 за месяц (КПК и мобильные)