.
Авторизация | Регистрация
Хочешь лучшие торренты? Добавь свой email!
Добавить

Торрент скачать бесплатно

» » Миднайт, Техас / Midnight, Texas (2017) WEB-DLRip [H.264] (сезон 1, серии 1-10 из 10) LostFilm [MP4|1280x720] [AD] торрент скачать бесплатно




    Миднайт, Техас / Midnight, Texas (2017) WEB-DLRip [H.264] (сезон 1, серии 1-10 из 10) LostFilm [MP4|1280x720] [AD] торрент скачать бесплатно

    Опубликовал: Админ | Дата: 22-09-2017, 05:00 | Просмотров: 0

    Производство: США, David Janollari Entertainment, Hentemann Films, Universal TV
    Жанр: фэнтези, драма, детектив
    Режиссер: Дэвид Соломон, Майрзи Алмас, Грег Биман
    Актеры: Франсуа Арно, Дилан Брюс, Ариэль Кеббел, Джейсон Льюис, Питер Менса, Сара Рамос, Юл Васкес, Джоэнн Кэмп, Париса Фитц-Хенли, Келли В. Лучио

    Описание

    События мистической драмы развернутся в маленьком техасском городке Миднайт, где обычный мир сталкивается с миром сверхъестественного, и эта гремучая смесь превращает обычное с виду провинциальное местечко в полное тёмных секретов обиталище крайне загадочных личностей.

    Продолжительность: ~ 00: 43: 00 серия
    Качество видео: WEB-DLRip
    Перевод: Профессиональный (многоголосый закадровый) -LostFilm
    Реклама: Присутствует заставка и логотип LostFilm
    Субтитры: Отсутствуют
    Видео: AVC/H.264, 1280x720 (16: 9), ~4000 kbps
    Аудио: AAC, 2 ch, 245 kbps - русский (многоголосый закадровый)
    General
    Complete name : D: NNMClubMidnight.Texas.S01.720p.WEBRip.LostFilmMidnight.Texas.S01E10.720p.WEB.rus.LostFilm.TV.mp4
    Format : MPEG-4
    Format profile : Base Media
    Codec ID : isom (isom)
    File size : 1.26 GiB
    Duration : 42 min 27 s
    Overall bit rate mode : Variable
    Overall bit rate : 4 248 kb/s
    Collection : Миднайт, Техас
    Season : 1
    Album : Миднайт, Техас, Сезон 1
    Album/Performer : Миднайт, Техас
    Part : 10
    Part/Position : 1
    Track name : Жертвоприношение девственницы
    Track name/Position : 10
    Performer : Миднайт, Техас
    Genre : Drama
    ContentType : TV Show
    Recorded date : 2017
    Encoded date : UTC 2017-09-19 17: 18: 09
    Tagged date : UTC 2017-09-19 17: 18: 09
    Writing application : Yamb 2.1.0.0 http://yamb.unite-video.com/LostCoder
    Copyright : LostFilm.TV (c)
    Cover : Yes
    Comment : Манфред — парень необычный. Он умеет общаться с мертвыми, но эти способности доставляют ему по большей части проблемы. Из-за неудачного телепатического сеанса ему приходится сменить место жительства.
    Part_ID : 110
    Video
    ID : 1
    Format : AVC
    Format/Info : Advanced Video Codec
    Format profile : High@L4.1
    Format settings, CABAC : Yes
    Format settings, RefFrames : 4 frames
    Codec ID : avc1
    Codec ID/Info : Advanced Video Coding
    Duration : 42 min 27 s
    Bit rate : 4 000 kb/s
    Maximum bit rate : 15.9 Mb/s
    Width : 1 280 pixels
    Height : 720 pixels
    Display aspect ratio : 16: 9
    Frame rate mode : Constant
    Frame rate : 23.976 (24000/1001) FPS
    Original frame rate : 23.976 (23976/1000) FPS
    Color space : YUV
    Chroma subsampling : 4: 2: 0
    Bit depth : 8 bits
    Scan type : Progressive
    Bits/(Pixel*Frame) : 0.181
    Stream size : 1.19 GiB (94%)
    Title : Imported with GPAC 0.4.6-DEV (internal rev. 5)
    Writing library : x264 core 112 r1834 a51816a
    Encoding settings : cabac=1/ref=4/deblock=1: -3: -2/analyse=0x3: 0x113/me=hex/subme=7/psy=1/psy_rd=1.00: 0.00/mixed_ref=1/me_range=16/chroma_me=1/trellis=1/8x8dct=1/cqm=0/deadzone=21, 11/fast_pskip=1/chroma_qp_offset=-2/threads=12/sliced_threads=0/nr=0/decimate=1/interlaced=0/constrained_intra=0/bframes=5/b_pyramid=2/b_adapt=1/b_bias=0/direct=1/weightb=1/open_gop=0/weightp=2/keyint=250/keyint_min=25/scenecut=40/intra_refresh=0/rc_lookahead=40/rc=2pass/mbtree=1/bitrate=4000/ratetol=1.0/qcomp=0.60/qpmin=0/qpmax=51/qpstep=4/cplxblur=20.0/qblur=0.5/vbv_maxrate=10000/vbv_bufsize=256000/ip_ratio=1.40/aq=1: 1.00/nal_hrd=none
    Encoded date : UTC 2017-09-19 01: 41: 59
    Tagged date : UTC 2017-09-19 17: 19: 08
    Audio
    ID : 2
    Format : AAC
    Format/Info : Advanced Audio Codec
    Format profile : LC
    Codec ID : 40
    Duration : 42 min 26 s
    Bit rate mode : Variable
    Bit rate : 245 kb/s
    Maximum bit rate : 298 kb/s
    Channel(s) : 2 channels
    Channel positions : Front: L R
    Sampling rate : 48.0 kHz
    Frame rate : 46.875 FPS (1024 SPF)
    Compression mode : Lossy
    Stream size : 74.2 MiB (6%)
    Encoded date : UTC 2017-09-19 17: 19: 07
    Tagged date : UTC 2017-09-19 17: 19: 08


    Миднайт, Техас/Midnight, Texas (2017) WEB-DLRip [H.264] (сезон 1, серии 1-10 из 10) LostFilm [MP4|1280x720] [AD]
    загрузка...
    Рейтинг →
     (голосов: 1, оценка 5/5, голосовать можно 1 раз )

    Другие торренты по теме:

  • Миднайт, Техас / Midnight, Texas (2017) WEB-DL [H.264 / 1080p-LQ] (сезон 1, серии 1 из 10) OMSKBIRD (обновляемая) [AD]
  • Миднайт, Техас / Midnight, Texas (2017) WEB-DL [H.264 / 1080p-LQ] (сезон 1, серии 1 из 10) BaibaKo (обновляемая)
  • Миднайт, Техас / Midnight, Texas (2017) WEBRip (сезон 1, серия 1 из 10) IdeaFilm (обновляемая) [AD]
  • Миднайт, Техас / Midnight, Texas (2017) WEB-DL [H.264 / 1080p-LQ] (сезон 1, серии 1 из 10) NewStudio (обновляемая)
  • Миднайт, Техас / Midnight, Texas (2017) WEB-DL [H.264 / 1080p-LQ] (сезон 1, серии 1 из 10) LostFilm (обновляемая)


    • Комментарии (0):

      Информация

      Информация

        Посетители, находящиеся в группе Гости, не могут оставлять комментарии в данной новости.

        ↓ Меню




        ↓ Опрос

        Вы добавили сайт в закладки?
        Да
        Нет


        Top 10 за месяц (КПК и мобильные)