.
Авторизация | Регистрация
Хочешь лучшие торренты? Добавь свой email!
Добавить

Торрент скачать бесплатно

» » О.К. Сильченко. Лекция «Происхождение и эволюция галактик» (2017) WEBRip [H.264] [MP4|1920x1080] торрент скачать бесплатно




    О.К. Сильченко. Лекция «Происхождение и эволюция галактик» (2017) WEBRip [H.264] [MP4|1920x1080] торрент скачать бесплатно

    Опубликовал: Админ | Дата: 21-09-2017, 05:00 | Просмотров: 0

    Жанр: Лекция, Документальный
    Ведущий: О.К. Сильченко

    Описание

    Лекция состоялась в Научно-популярном лектории центра Архэ 19 марта 2017 года.
    Лектор: Сильченко Ольга Касьяновна - доктор физико-математических наук, заведующая отделом физики эмиссионных звезд и галактик ГАИШ МГУ, доцент кафедры экспериментальной астрономии физического факультета МГУ, автор книги Происхождение и эволюция галактик.
    Качество видео: WEBRip
    Субтитры: отсутствуют
    Видео: AVC/H.264, 1920x1080, ~1498 Кбит/сек
    Аудио: AAC, 2 ch, 126 Kbps

    Общее
    Полное имя : C: О.К. Сильченко. Лекция Происхождение и эволюция галактик .MP4
    Формат : MPEG-4
    Профиль формата : Base Media
    Идентификатор кодека : isom (isom/iso2/avc1/mp41)
    Размер файла : 1, 20 Гбайт
    Продолжительность : 1 ч. 45 м.
    Режим общего битрейта : Переменный
    Общий поток : 1626 Кбит/сек
    Дата кодирования : UTC 2017-04-05 14: 59: 59
    Дата пометки : UTC 2017-04-05 14: 59: 59
    Видео
    Идентификатор : 1
    Формат : AVC
    Формат/Информация : Advanced Video Codec
    Профиль формата : High@L4
    Параметр CABAC формата : Да
    Параметр ReFrames формата : 3 кадра
    Идентификатор кодека : avc1
    Идентификатор кодека/Информация : Advanced Video Coding
    Продолжительность : 1 ч. 45 м.
    Битрейт : 1498 Кбит/сек
    Ширина : 1920 пикселей
    Высота : 1080 пикселей
    Соотношение сторон : 16: 9
    Режим частоты кадров : Постоянный
    Частота кадров : 25, 000 кадров/сек
    Цветовое пространство : YUV
    Субдискретизация насыщенности : 4: 2: 0
    Битовая глубина : 8 бит
    Тип развёртки : Прогрессивная
    Бит/(Пиксели*Кадры) : 0.029
    Размер потока : 1, 10 Гбайт (92%)
    Дата кодирования : UTC 2017-04-05 14: 59: 59
    Дата пометки : UTC 2017-04-05 14: 59: 59
    Цветовой диапазон : Limited
    Основные цвета : BT.709
    Характеристики трансфера : BT.709
    Коэффициенты матрицы : BT.709
    Аудио
    Идентификатор : 2
    Формат : AAC
    Формат/Информация : Advanced Audio Codec
    Профиль формата : LC
    Идентификатор кодека : 40
    Продолжительность : 1 ч. 45 м.
    Вид битрейта : Переменный
    Битрейт : 126 Кбит/сек
    Каналы : 2 канала
    Расположение каналов : Front: L R
    Частота : 44, 1 КГц
    Частота кадров : 43, 066 кадра/сек (1024 spf)
    Метод сжатия : С потерями
    Размер потока : 94, 8 Мбайт (8%)
    Default : Да
    Alternate group : 1
    Дата кодирования : UTC 2017-04-05 15: 14: 33
    Дата пометки : UTC 2017-04-05 15: 14: 33
    Скриншоты:


    О.К. Сильченко на трекере NNM-Club
    Время раздачи: по возможности (до появления первых 3-5 скачавших)

    О.К. Сильченко. Лекция «Происхождение и эволюция галактик» (2017) WEBRip [H.264] [MP4|1920x1080]
    загрузка...
    Рейтинг →
     (голосов: 1, оценка 5/5, голосовать можно 1 раз )

    Другие торренты по теме:



      Комментарии (0):

      Информация

      Информация

        Посетители, находящиеся в группе Гости, не могут оставлять комментарии в данной новости.

        ↓ Меню




        ↓ Опрос

        Вы добавили сайт в закладки?
        Да
        Нет


        Top 10 за месяц (КПК и мобильные)