.
Авторизация | Регистрация
Хочешь лучшие торренты? Добавь свой email!
Добавить

Торрент скачать бесплатно

» » Следует ли нам опасаться мобильных телефонов / The hidden dangers of mobile phones (2015) WEBRip [H.264] [MP4|786x480] торрент скачать бесплатно




    Следует ли нам опасаться мобильных телефонов / The hidden dangers of mobile phones (2015) WEBRip [H.264] [MP4|786x480] торрент скачать бесплатно

    Опубликовал: Админ | Дата: 18-09-2017, 05:00 | Просмотров: 0

    Производство: Германия
    Жанр: Документальный
    Режиссёр Nanje de Jong-Teuscher, Claus U. Eckert

    Описание

    Невозможно представить современную жизнь без мобильной связи. Сейчас в мире насчитывается около 7 миллиардов мобильных телефонов. Ритм нашей жизни почти полностью зависит от беспроводных технологий. Представляет ли излучение от мобильного телефона угрозу для человека? Ученые всего мира пытаются выяснить, какое воздействие оно оказывает на здоровье детей и взрослых. Есть ли надежда, что специалисты смогут дать точный ответ: можно ли говорить о безопасности беспроводной связи или это бомба замедленного действия?
    Качество видео: WEBRip
    Перевод: Многоголосый закадровый (канал Культура)
    Субтитры: отсутствуют
    Видео: AVC/H.264, 786x480, ~502 Kbps
    Аудио: AAC, 2 ch, 126 Kbps

    Общее
    Полное имя : C: UsersAlexVectorDesktopСледует ли нам опасаться мобильных телефонов.mp4
    Формат : MPEG-4
    Профиль формата : Base Media
    Идентификатор кодека : isom (isom/iso2/avc1/mp41)
    Размер файла : 233 Мбайт
    Продолжительность : 51 м. 44 с.
    Режим общего битрейта : Переменный
    Общий поток : 631 Кбит/сек
    Дата кодирования : UTC 2017-05-25 17: 16: 22
    Дата пометки : UTC 2017-05-25 17: 16: 22
    Видео
    Идентификатор : 1
    Формат : AVC
    Формат/Информация : Advanced Video Codec
    Профиль формата : Main@L3
    Параметр CABAC формата : Да
    Параметр ReFrames формата : 3 кадра
    Идентификатор кодека : avc1
    Идентификатор кодека/Информация : Advanced Video Coding
    Продолжительность : 51 м. 44 с.
    Битрейт : 502 Кбит/сек
    Ширина : 786 пикселей
    Высота : 480 пикселей
    Соотношение сторон : 16: 10
    Режим частоты кадров : Постоянный
    Частота кадров : 25, 000 кадров/сек
    Цветовое пространство : YUV
    Субдискретизация насыщенности : 4: 2: 0
    Битовая глубина : 8 бит
    Тип развёртки : Прогрессивная
    Бит/(Пиксели*Кадры) : 0.053
    Размер потока : 186 Мбайт (80%)
    Дата кодирования : UTC 2017-05-25 17: 16: 22
    Дата пометки : UTC 2017-05-25 17: 16: 22
    Аудио
    Идентификатор : 2
    Формат : AAC
    Формат/Информация : Advanced Audio Codec
    Профиль формата : LC
    Идентификатор кодека : 40
    Продолжительность : 51 м. 44 с.
    Вид битрейта : Переменный
    Битрейт : 126 Кбит/сек
    Каналы : 2 канала
    Расположение каналов : Front: L R
    Частота : 44, 1 КГц
    Частота кадров : 43, 066 кадра/сек (1024 spf)
    Метод сжатия : С потерями
    Размер потока : 46, 5 Мбайт (20%)
    Default : Да
    Alternate group : 1
    Скриншоты:


    Все одноименные релизы в Клубе
    Время раздачи: по возможности (до появления первых 3-5 скачавших)

    Следует ли нам опасаться мобильных телефонов/The hidden dangers of mobile phones (2015) WEBRip [H.264] [MP4|786x480]
    загрузка...
    Рейтинг →
     (голосов: 1, оценка 4/5, голосовать можно 1 раз )

    Другие торренты по теме:

  • Disasterpeace - Оно следует за тобой / It Follows (Original Motion Picture Soundtrack) (2015) [MP3|320 кб / с]<Soundtrack> скачать через торрент бесплатно
  • И. А. Крывелев | Почему не следует верить в бога (1969) [DJVU]
  • Дональд Трамп, Мередит Макивер | Думай как миллиардер. Все, что следует знать об успехе, недвижимости и жизни вообще (2016) [EPUB, FB2, MOBI]
  • За осенью следует зима / After Fall, Winter (2011) WEB-DLRip [H.264 / 720p-LQ] [EN / EN Sub]


    • Комментарии (0):

      Информация

      Информация

        Посетители, находящиеся в группе Гости, не могут оставлять комментарии в данной новости.

        ↓ Меню




        ↓ Опрос

        Вы добавили сайт в закладки?
        Да
        Нет


        Top 10 за месяц (КПК и мобильные)