.
Авторизация | Регистрация
Хочешь лучшие торренты? Добавь свой email!
Добавить

Торрент скачать бесплатно

» » Erin Janus - Собрание всех переведенных и озвученных роликов на данный момент (2017) SATRip [H.264] [MP4|1280x720] торрент скачать бесплатно




    Erin Janus - Собрание всех переведенных и озвученных роликов на данный момент (2017) SATRip [H.264] [MP4|1280x720] торрент скачать бесплатно

    Опубликовал: Админ | Дата: 13-09-2017, 05:00 | Просмотров: 0

    Режиссер: Erin Janus
    Жанр: Обучающее видео

    Описание

    Erin Janus активистка Веган движения. Рассказывает о масштабной эксплуатации, насилии и жестокости в промышленном животноводстве.
    Продолжительность: 01: 30: 30
    Качество видео: SATRip
    Перевод: Одноголосый закадровый
    Видео: AVC/H.264, 1280x720, ~1631 Kbps
    Аудио: AAC, 2 ch, 126 Kbps

    Общее
    Полное имя : Erin Janus - Собрание всех переведенных и озвученных роликов на данный момент (2017)День индейки.mp4
    Формат : MPEG-4
    Профиль формата : Base Media/Version 2
    Идентификатор кодека : mp42 (isom/mp42)
    Размер файла : 88, 5 Мбайт
    Продолжительность : 7 м. Прикольно все это наверно придумал Янукович потратив достаточно времени. 1 с.
    Режим общего битрейта : Переменный
    Общий поток : 1761 Кбит/сек
    Дата кодирования : UTC 2016-11-24 10: 35: 20
    Дата пометки : UTC 2016-11-24 10: 35: 20
    gsst : 0
    gstd : 421813
    Видео
    Идентификатор : 1
    Формат : AVC
    Формат/Информация : Advanced Video Codec
    Профиль формата : Main@L3.1
    Параметр CABAC формата : Да
    Параметр ReFrames формата : 3 кадра
    Идентификатор кодека : avc1
    Идентификатор кодека/Информация : Advanced Video Coding
    Продолжительность : 7 м. 1 с.
    Битрейт : 1631 Кбит/сек
    Ширина : 1280 пикселей
    Высота : 720 пикселей
    Соотношение сторон : 16: 9
    Режим частоты кадров : Переменный
    Частота кадров : 23, 976 (24000/1001) кадра/сек
    Минимальная частота кадров : 23, 974 кадра/сек
    Максимальная частота кадров : 23, 981 кадра/сек
    Цветовое пространство : YUV
    Субдискретизация насыщенности : 4: 2: 0
    Битовая глубина : 8 бит
    Тип развёртки : Прогрессивная
    Бит/(Пиксели*Кадры) : 0.074
    Размер потока : 82, 0 Мбайт (93%)
    Заголовок : ISO Media file produced by Google Inc.
    Дата кодирования : UTC 2016-11-24 10: 35: 20
    Дата пометки : UTC 2016-11-24 10: 35: 20
    Цветовой диапазон : Limited
    Основные цвета : BT.709
    Характеристики трансфера : BT.709
    Коэффициенты матрицы : BT.709
    Аудио
    Идентификатор : 2
    Формат : AAC
    Формат/Информация : Advanced Audio Codec
    Профиль формата : LC
    Идентификатор кодека : 40
    Продолжительность : 7 м. 1 с.
    Вид битрейта : Переменный
    Битрейт : 126 Кбит/сек
    Каналы : 2 канала
    Расположение каналов : Front: L R
    Частота : 44, 1 КГц
    Частота кадров : 43, 066 кадра/сек (1024 spf)
    Метод сжатия : С потерями
    Размер потока : 6, 31 Мбайт (7%)
    Заголовок : ISO Media file produced by Google Inc.
    Дата кодирования : UTC 2016-11-24 10: 35: 20
    Дата пометки : UTC 2016-11-24 10: 35: 20


    Erin Janus - Собрание всех переведенных и озвученных роликов на данный момент (2017) SATRip [H.264] [MP4|1280x720]
    загрузка...
    Рейтинг →
     (голосов: 1, оценка 5/5, голосовать можно 1 раз )

    Другие торренты по теме:

  • Erin Evermore - Erin Forever …And Ever …And Ever (1998) Reissue, 1999, King Records [MP3|320 Kbps] <Glam Rock, Pop Rock>
  • Erin Boheme - What Love Is (2006) Сoncord Jazz [FLAC|Lossless|image + .cue] <Vocal Jazz>


    • Комментарии (0):

      Информация

      Информация

        Посетители, находящиеся в группе Гости, не могут оставлять комментарии в данной новости.

        ↓ Меню




        ↓ Опрос

        Вы добавили сайт в закладки?
        Да
        Нет


        Top 10 за месяц (КПК и мобильные)