.
Авторизация | Регистрация
Хочешь лучшие торренты? Добавь свой email!
Добавить

Торрент скачать бесплатно

» » Лунтик и его друзья (2006-2017) WEB-DLRip [H.264] (Сезон 1-8, серии 1-481, 485-486, 488) [MP4|1920x1080] торрент скачать бесплатно




    Лунтик и его друзья (2006-2017) WEB-DLRip [H.264] (Сезон 1-8, серии 1-481, 485-486, 488) [MP4|1920x1080] торрент скачать бесплатно

    Опубликовал: Админ | Дата: 13-09-2017, 05:00 | Просмотров: 0

    Производство: Россия, Анимационная Студия Мельница
    Жанр: Детский, Компьютерная анимация
    Режиссер: Дарина Шмидт, Елена Галдобина, Екатерина Салабай
    Персонажи: Лунтик (Екатерина Гороховская), Кузя (Елена Шульман), Мила (Юлия Рудина), Пчелёнок (Екатерина Гороховская, Светлана Письмиченко), Вупсень и Пупсень (Олег Куликович), Баба Капа (Елена Шульман), Корней Корнеевич, Генерал Шер, Паук Шнюк (Анатолий Петров)

    Описание
    Приключения Лунтика, маленького пушистого существа, родившегося на Луне и свалившегося с нее на Землю.

    Возраст: 0+ (для любой зрительской аудитории)
    Продолжительность: серия по ~00: 04: 40
    Качество видео: WEB-DLRip
    Субтитры: Отсутствуют
    Видео: AVC/H.264, 1920x1080, ~2580 Kbps
    Аудио: AAC, 2 ch, ~192 kbps

    General
    Complete name : D: Лунтик 1080р01 Лунный гость.mp4
    Format : MPEG-4
    Format profile : Base Media
    Codec ID : isom (isom)
    File size : 92.3 MiB
    Duration : 4mn 38s
    Overall bit rate mode : Variable
    Overall bit rate : 2 775 Kbps
    Encoded date : UTC 2016-02-18 14: 02: 39
    Tagged date : UTC 2016-02-18 14: 02: 39
    Writing application : My MP4Box GUI 0.6.0.6 http://my-mp4box-gui.zymichost.com
    Video
    ID : 1
    Format : AVC
    Format/Info : Advanced Video Codec
    Format profile : High@L4
    Format settings, CABAC : Yes
    Format settings, ReFrames : 2 frames
    Codec ID : avc1
    Codec ID/Info : Advanced Video Coding
    Duration : 4mn 38s
    Bit rate : 2 580 Kbps
    Maximum bit rate : 7 570 Kbps
    Width : 1 920 pixels
    Height : 1 080 pixels
    Display aspect ratio : 16: 9
    Frame rate mode : Constant
    Frame rate : 25.000 fps
    Color space : YUV
    Chroma subsampling : 4: 2: 0
    Bit depth : 8 bits
    Scan type : Progressive
    Bits/(Pixel*Frame) : 0.050
    Stream size : 85.8 MiB (93%)
    Title : 001_1080.mp4
    Encoded date : UTC 2015-11-17 20: 31: 45
    Tagged date : UTC 2016-02-18 14: 02: 41
    Audio
    ID : 2
    Format : AAC
    Format/Info : Advanced Audio Codec
    Format profile : LC
    Codec ID : 40
    Duration : 4mn 38s
    Bit rate mode : Variable
    Bit rate : 192 Kbps
    Maximum bit rate : 203 Kbps
    Channel(s) : 2 channels
    Channel positions : Front: L R
    Sampling rate : 44.1 KHz
    Frame rate : 43.066 fps (1024 spf)
    Compression mode : Lossy
    Stream size : 6.38 MiB (7%)
    Title : 001-ru.aac
    Encoded date : UTC 2016-02-18 14: 02: 41
    Tagged date : UTC 2016-02-18 14: 02: 41


    Лунтик и его друзья (2006-2017) WEB-DLRip [H.264] (Сезон 1-8, серии 1-481, 485-486, 488) [MP4|1920x1080]
    загрузка...
    Рейтинг →
     (голосов: 1, оценка 4/5, голосовать можно 1 раз )

    Другие торренты по теме:

  • Лунтик и его друзья (2013-2014) WEB-DLRip (7 сезон)(серии 390-437)
  • Лунтик и его друзья (2013-2016) WEB-DLRip 7,8 сезон (390-449), Мультики 2016 (450-459, 461 серии)
  • Лунтик и его друзья (2006-2017) WEB-DLRip [H.264 / 720p-LQ] (сезон 1-9, серии 1-485) [Обновляемая]


    • Комментарии (0):

      Информация

      Информация

        Посетители, находящиеся в группе Гости, не могут оставлять комментарии в данной новости.

        ↓ Меню




        ↓ Опрос

        Вы добавили сайт в закладки?
        Да
        Нет


        Top 10 за месяц (КПК и мобильные)