.
Авторизация | Регистрация
Хочешь лучшие торренты? Добавь свой email!
Добавить

Торрент скачать бесплатно

» » Стрелок / Shooter (2017) WEB-DLRip [H.264] (сезон 2, серии 1 из 10) LostFilm [MP4|1280x720] [AD] торрент скачать бесплатно




    Стрелок / Shooter (2017) WEB-DLRip [H.264] (сезон 2, серии 1 из 10) LostFilm [MP4|1280x720] [AD] торрент скачать бесплатно

    Опубликовал: Админ | Дата: 22-07-2017, 05:00 | Просмотров: 0

    Производство: США
    Жанр: боевик, драма
    Режиссер: Саймон Селлан Джоунс
    Актеры: Шантель Ван Сантен, Райан Филипп, Омар Эппс, Эмили Риос, Эдди МакКлинток, Темби Лок, Дэвид Стюарт, Курт Макс Рунте, Дж.С. Уильямс и др.

    Описание

    Отставной снайпер Боб Ли Суаггер провел долгие месяцы службы в командировках на Ближнем Востоке. Вместе с другом и наводчиком Донни Фенном он выполнял самые сложные задания и ликвидировал самых опасных преступников. Тем не менее последняя миссия закончилась провалом, повлекшим за собой трагедию — Суаггер был ранен, а Донни погиб от рук чеченского боевика Солотова. Божий одуванчик, сказал кто то из толпы, к чему не понятно. Вследствие этого происшествия Боб ушел в отставку и полностью посвятил себя семье. Однако спокойная жизнь продлилась не долго: через три года к нему с просьбой о помощи обращается начальник президентской охраны Айзек Джонсон. Правительственные агенты узнали о готовящемся покушении на главу государства. По их данным, киллером будет именно Солотов. Суаггера просят стать консультантом спецслужб, ведь он не только первоклассный знаток своего дела, но и лично знаком с методами работы чеченского снайпера. Боб отправляется в Сиэтл, на место предполагаемого покушения, но все идет не по плану: Суаггера подставляют, и ему ничего не остается, кроме как пуститься в бега. Так лучший стрелок и герой Соединенных Штатов становится первым врагом государства: на него ведется настоящая охота. Сможет ли Суаггер найти союзников и вывести на чистую воду настоящих организаторов заговора?..

    Продолжительность: ~ 00: 42: 00 серия
    Качество видео: WEB-DLRip
    Перевод: Многоголосый закадровый, профессиональный -LostFilm
    Реклама: присутствует заставка и логотип LostFilm
    Видео: AVC/H.264, 1280x720 (16: 9), ~4000 Kbps
    Аудио: AAC, 2 ch, 256 Kbps - русский, многоголосый закадровый

    Полное имя : N: Shooter_s2_WEB-DL720p_x264_LostFilm_NNM-CLUBShooter.S02E01.720p.WEB.rus.LostFilm.TV.mp4
    Формат : MPEG-4
    Профиль формата : Base Media
    Идентификатор кодека : isom (isom)
    Размер файла : 1, 25 Гбайт
    Продолжительность : 42 м.
    Режим общего битрейта : Переменный
    Общий поток : 4259 Кбит/сек
    Коллекция : Стрелок
    Сезон : 2
    Альбом : Стрелок, Сезон 2
    Альбом/Исполнитель : Стрелок
    Часть : 1
    Часть/Положение : 2
    Трек : Охота на отряд
    Трек/Положение : 1
    Исполнитель : Стрелок
    Жанр : Drama
    Тип содержимого : TV Show
    Дата записи : 2017
    Дата кодирования : UTC 2017-07-19 20: 56: 30
    Дата пометки : UTC 2017-07-19 20: 56: 30
    Программа кодирования : LostCoder
    Авторское право : LostFilm.TV (c)
    Обложка : Yes
    Примечание : Отставному снайперу Бобу Ли Суаггеру обращается начальник президентской охраны Айзек Джонсон. Правительственные агенты узнали о готовящемся покушении на главу государства. Суаггера просят стать консультантом спецслужб.
    Part_ID : 201
    Видео
    Идентификатор : 1
    Формат : AVC
    Формат/Информация : Advanced Video Codec
    Профиль формата : High@L4.1
    Параметр CABAC формата : Да
    Параметр ReFrames формата : 4 кадра
    Идентификатор кодека : avc1
    Идентификатор кодека/Информация : Advanced Video Coding
    Продолжительность : 42 м.
    Битрейт : 4000 Кбит/сек
    Максимальный битрейт : 13, 8 Мбит/сек
    Ширина : 1280 пикселей
    Высота : 720 пикселей
    Соотношение сторон : 16: 9
    Режим частоты кадров : Постоянный
    Частота кадров : 23, 976 (24000/1001) кадра/сек
    Частота кадров в оригинале : 23, 976 (23976/1000) кадра/сек
    Цветовое пространство : YUV
    Субдискретизация насыщенности : 4: 2: 0
    Битовая глубина : 8 бит
    Тип развёртки : Прогрессивная
    Бит/(Пиксели*Кадры) : 0.181
    Размер потока : 1, 17 Гбайт (94%)
    Заголовок : Imported with GPAC 0.4.6-DEV (internal rev. Самое интересное в это истории, что об этом Китай ничего не знал. 5)
    Библиотека кодирования : x264 core 112 r1834 a51816a
    Настройки программы : cabac=1/ref=4/deblock=1: -3: -2/analyse=0x3: 0x113/me=hex/subme=7/psy=1/psy_rd=1.00: 0.00/mixed_ref=1/me_range=16/chroma_me=1/trellis=1/8x8dct=1/cqm=0/deadzone=21, 11/fast_pskip=1/chroma_qp_offset=-2/threads=6/sliced_threads=0/nr=0/decimate=1/interlaced=0/constrained_intra=0/bframes=5/b_pyramid=2/b_adapt=1/b_bias=0/direct=1/weightb=1/open_gop=0/weightp=2/keyint=250/keyint_min=25/scenecut=40/intra_refresh=0/rc_lookahead=40/rc=2pass/mbtree=1/bitrate=4000/ratetol=1.0/qcomp=0.60/qpmin=0/qpmax=51/qpstep=4/cplxblur=20.0/qblur=0.5/vbv_maxrate=10000/vbv_bufsize=256000/ip_ratio=1.40/aq=1: 1.00/nal_hrd=none
    Дата кодирования : UTC 2017-07-19 11: 01: 03
    Дата пометки : UTC 2017-07-19 20: 56: 38
    Аудио
    Идентификатор : 2
    Формат : AAC
    Формат/Информация : Advanced Audio Codec
    Профиль формата : LC
    Идентификатор кодека : 40
    Продолжительность : 42 м.
    Вид битрейта : Переменный
    Битрейт : 256 Кбит/сек
    Максимальный битрейт : 355 Кбит/сек
    Каналы : 2 канала
    Расположение каналов : Front: L R
    Частота : 48, 0 КГц
    Частота кадров : 46, 875 кадров/сек (1024 spf)
    Метод сжатия : С потерями
    Размер потока : 77, 0 Мбайт (6%)


    Скриншоты для ознакомления




    Стрелок/Shooter (2017) WEB-DLRip [H.264] (сезон 2, серии 1 из 10) LostFilm [MP4|1280x720] [AD]
    загрузка...
    Рейтинг →
     (голосов: 1, оценка 4/5, голосовать можно 1 раз )

    Другие торренты по теме:

  • Стрелок / Shooter (2007) HDRip [AVO]
  • Стрелок / Shooter (2007) Blu-Ray [1080p]
  • Стрелок / Shooter (2016) WEBRip (сезон 1, серии 1 из 12) OmskBird (обновляемая)
  • Стрелок / Shooter (2016) WEBRip [H.264 / 720p] (сезон 1, серии 1 из 12) OmskBird (обновляемая)
  • Стрелок / Shooter (2016) WEBRip [H.264 / 720p-LQ] (сезон 1, серии 1 из 12) BaibaKo (обновляемая)
  • Стрелок / Shooter (2016) WEB-DL [H.264 / 1080p-LQ] (сезон 1, серии 1 из 12) NewStudio (обновляемая)
  • Стрелок / Shooter (2016) WEBRip [H.264 / 1080p] (сезон 1, серии 1-2 из 12) BaibaKo (обновляемая)
  • Стрелок / Shooter (2016) WEB-DL [H.264 / 1080p-LQ] (сезон 1, серии 1 из 12) LostFilm (обновляемая)


    • Комментарии (0):

      Информация

      Информация

        Посетители, находящиеся в группе Гости, не могут оставлять комментарии в данной новости.

        ↓ Меню




        ↓ Опрос

        Вы добавили сайт в закладки?
        Да
        Нет


        Top 10 за месяц (КПК и мобильные)