.
Авторизация | Регистрация
Хочешь лучшие торренты? Добавь свой email!
Добавить

Торрент скачать бесплатно

» » Следствие ведут ЗнаТоКи (1971-1989) TVRip (серии 1-35 из 35) [MP4|640x480] торрент скачать бесплатно




    Следствие ведут ЗнаТоКи (1971-1989) TVRip (серии 1-35 из 35) [MP4|640x480] торрент скачать бесплатно

    Опубликовал: Админ | Дата: 27-04-2017, 05:00 | Просмотров: 8

    Производство: СССР
    Жанр: Детектив, Криминал
    Режиссер: В.Бровкин
    Актеры: Г.Мартынюк, Э.Леждей, Л.Каневский

    Описание фильма

    Георгий Мартынюк, Эльза Леждей и Леонид Каневский
    в самом знаменитом детективном сериале 70-80-х Следствие ведут ЗнаТоКи.
    Именно ЗнаТоКи открыли жанр детектива на отечественном телевидении.
    Загадочные убийства, запутанные дела, преступления без свидетелей...
    Во всем этом калейдоскопе криминальной жизни ЗнаТоКам необходимо
    принимать единственно правильные решения.
    ЗнаТоКи — профессионалы высшего класса,
    ведь именно они первыми стали заниматься делами государственной важности

    Дата российской премьеры: 14.02.1971
    Дата выхода DVD/Blu-Ray релиза: 15.04.2010, Флагман-Трейд
    Продолжительность: ~ 01: 30: 00 серия
    Качество видео: TVRip
    Видео: MPEG-4 (H.263), 640x480, ~646 Kbps
    Аудио: AAC, 2 ch, 90.6 Kbps
    General
    Complete name : D: NNMClubСледствие ведут ЗнатокиДело 10-ч3.mp4
    Format : MPEG-4
    Format profile : Base Media
    Codec ID : isom (isom/iso2/mp41)
    File size : 458 MiB
    Duration : 1 h 26 min
    Overall bit rate mode : Variable
    Overall bit rate : 741 kb/s
    Encoded date : UTC 1970-01-01 00: 00: 00
    Tagged date : UTC 1970-01-01 00: 00: 00
    Writing application : AVM.EXE
    Video
    ID : 1
    Format : MPEG-4 Visual
    Format profile : Simple@L1
    Format settings, BVOP : No
    Format settings, QPel : No
    Format settings, GMC : No warppoints
    Format settings, Matrix : Default (H.263)
    Codec ID : 20
    Duration : 1 h 26 min
    Bit rate : 646 kb/s
    Width : 640 pixels
    Height : 480 pixels
    Display aspect ratio : 4: 3
    Frame rate mode : Constant
    Frame rate : 25.000 FPS
    Color space : YUV
    Chroma subsampling : 4: 2: 0
    Bit depth : 8 bits
    Scan type : Progressive
    Compression mode : Lossy
    Bits/(Pixel*Frame) : 0.084
    Stream size : 400 MiB (87%)
    Writing library : Lavc52.72.2
    Encoded date : UTC 1970-01-01 00: 00: 00
    Tagged date : UTC 1970-01-01 00: 00: 00
    Audio
    ID : 2
    Format : AAC
    Format/Info : Advanced Audio Codec
    Format profile : LC
    Codec ID : 40
    Duration : 1 h 26 min
    Bit rate mode : Variable
    Bit rate : 90.7 kb/s
    Channel(s) : 2 channels
    Channel positions : Front: L R
    Sampling rate : 44.1 kHz
    Frame rate : 43.066 FPS (1024 spf)
    Compression mode : Lossy
    Stream size : 56.1 MiB (12%)
    Encoded date : UTC 1970-01-01 00: 00: 00
    Tagged date : UTC 1970-01-01 00: 00: 00


    Скриншоты для ознакомления




    Следствие ведут ЗнаТоКи (1971-1989) TVRip (серии 1-35 из 35) [MP4|640x480]
    загрузка...
    Рейтинг →
     (голосов: 1, оценка 3/5, голосовать можно 1 раз )

    Другие торренты по теме:

  • Следствие ведут колобки (1986) HDRip (Серий 4 из 4)
  • Следствие ведут с Павлом Зайцевым (04.10.2015) SATRip скачать через торрент бесплатно
  • Следствие ведут с Павлом Зайцевым (18.10.2015) SATRip скачать через торрент бесплатно
  • Следствие ведут с Павлом Зайцевым (08.11.2015) SATRip скачать через торрент бесплатно
  • Следствие ведут с Павлом Зайцевым (15.11.2015) SATRip скачать через торрент бесплатно
  • Следствие ведут Знатоки (1971-2003) TVRip [45]
  • Ольга Лаврова, Александр Лавров | Следствие ведут ЗнаТоКи. Дело 15-21 (2017) [MP3]


    • Комментарии (0):

      Информация

      Информация

        Посетители, находящиеся в группе Гости, не могут оставлять комментарии в данной новости.

        ↓ Меню




        ↓ Опрос

        Вы добавили сайт в закладки?
        Да
        Нет


        Top 10 за месяц (КПК и мобильные)