.
Авторизация | Регистрация
Хочешь лучшие торренты? Добавь свой email!
Добавить

Торрент скачать бесплатно

» » Такси: Квадрология / Taxi: 4-Movie Collection (1998 / 2000 / 2003 / 2007) BDRip [H.264] [MP4|1024x436] торрент скачать бесплатно



    Такси: Квадрология / Taxi: 4-Movie Collection (1998 / 2000 / 2003 / 2007) BDRip [H.264] [MP4|1024x436] торрент скачать бесплатно

    Опубликовал: Админ | Дата: 23-01-2017, 05:00 | Просмотров: 40

    Производство:
    Франция/ARP Sélection, TF1 Films Production, Canal+
    Жанр: Боевик, Комедия, Криминал
    Режиссер: Жерар Пирес
    Актеры: Сами Насери, Фредерик Дифенталь, Марион Котийяр, Мануэла Гурари, Эмма Сьоберг, Бернар Фарси, Жорж Нери, Гай Нгуен, Морис Мурсия, Сабина Бэйл

    Описание

    Молодой таксист Даниэль помешан на быстрой езде. Как ураган проносится он по извилистым улицам Марселя на своем мощном ревущем звере Пежо, пугая пассажиров и прохожих. Неподкупный полицейский Эмильен вынуждает его помочь в поимке банды грабителей, ускользающих от полиции на своих неуловимых Мерседесах. И до самого конца не ясно, кто же сможет удержаться на крутом вираже

    Возраст: 16+ (зрителям, достигшим 16 лет)
    Прoдолжительность: 01: 29: 50
    Качество видео: BDRip
    Перевод: Дублированный, Одноголосый закадровый, Многоголосый закадровый
    Озвучка/Автор перевода: Мосфильм (со вставками MVO), А.Гаврилов, Новий Канал
    Вид субтитров: Вшитые отключаемые
    Язык субтитров: Русский, Английский
    Видео: AVC/H.264 (Base@L3.1 ), 1024x436 (2.35: 1), 23.976 fps, 2 350 Kbps
    Аудио #1: AAC, 2 ch, 132 Kbps - русский (дублированный)
    Аудио #2: AAC, 2 ch, 132 Kbps - русский (одноголосый закадровый)
    Аудио #3: AC3, 1 ch, 192 Kbps - украинский (многоголосый закадровый)
    Аудио #4: AAC, 2 ch, 132 Kbps - французский
    Код: выделить все

    General
    Complete name : C:DGITaxi.4-Movie.Collection(1998-2007).576p.h264.NNMclubTaxi.1998.576p.BDRip.h264.NNMclub.mp4
    Format : MPEG-4
    Format profile : Base Media/Version 2
    Codec ID : mp42 (mp42/isom)
    File size : 1.85 GiB
    Duration : 1 h 29 min
    Overall bit rate mode : Variable
    Overall bit rate : 2 949 kb/s
    Movie name : Taxi
    Performer : Gérard Pirès
    Director : Gérard Pirès
    Genre : Action et aventure
    ContentType : Short Film
    Description : Daniel, livreur de pizza, réalise son rêve en devenant chauffeur de taxi. Ce nouveau métier est un prétexte pour pouvoir enfin renouer avec sa passion pour la course automobile... Plein de zèle et de fierté, il montre à un client, Emilien, les merveilles de son véhicule. Malheureusement, le jeune homme est inspecteur de police et menace de lui retirer sa licence. En fait, il lui propose un deal : il fermera les yeux si Daniel accepte de mettre sa débrouillardise et son savoir à son service...
    Recorded date : 1998-04-08
    Encoded date : UTC 2017-01-21 12:54:00
    Tagged date : UTC 2017-01-21 13:00:37
    Cover : Yes
    LongDescription : Daniel, livreur de pizza, réalise son rêve en devenant chauffeur de taxi. Ce nouveau métier est un prétexte pour pouvoir enfin renouer avec sa passion pour la course automobile... Plein de zèle et de fierté, il montre à un client, Emilien, les merveilles de son véhicule. Malheureusement, le jeune homme est inspecteur de police et menace de lui retirer sa licence. En fait, il lui propose un deal : il fermera les yeux si Daniel accepte de mettre sa débrouillardise et son savoir à son service...
    AppleStoreCountry : France
    AppleStoreCatalogID : 557960665
    ContentRating : fr-movie|Tout public|000|
    Video
    ID : 1
    Format : AVC
    Format/Info : Advanced Video Codec
    Format profile :Main@L3.1
    Format settings, CABAC : Yes
    Format settings, ReFrames : 3 frames
    Codec ID : avc1
    Codec ID/Info : Advanced Video Coding
    Duration : 1 h 29 min
    Bit rate : 2 350 kb/s
    Width : 1 024 pixels
    Height : 436 pixels
    Display aspect ratio : 2.35:1
    Frame rate mode : Variable
    Frame rate : 23.976 (24000/1001) FPS
    Minimum frame rate : 23.810 FPS
    Maximum frame rate : 24.390 FPS
    Color space : YUV
    Chroma subsampling : 4:2:0
    Bit depth : 8 bits
    Scan type : Progressive
    Bits/(Pixel*Frame) : 0.220
    Stream size : 1.48 GiB (80%)
    Writing library : x264 core 148 r2744+55 950084e t_mod_Custom [8-bit@all X86_64]
    Encoding settings : cabac=1/ref=3/deblock=1:0:0/analyse=0x1:0x111/me=umh/subme=7/psy=1/fade_compensate=0.00/psy_rd=1.00:0.05/mixed_ref=1/me_range=32/chroma_me=1/trellis=2/8x8dct=0/cqm=0/deadzone=21, 11/fast_pskip=0/chroma_qp_offset=-3/threads=14/lookahead_threads=2/sliced_threads=0/nr=0/decimate=0/interlaced=0/bluray_compat=0/constrained_intra=0/fgo=0/bframes=3/b_pyramid=0/b_adapt=2/b_bias=0/direct=1/weightb=1/open_gop=0/weightp=2/keyint=240/keyint_min=23/scenecut=40/intra_refresh=0/rc_lookahead=60/rc=2pass/mbtree=1/bitrate=2350/ratetol=1.0/qcomp=0.60/qpmin=0:0:0/qpmax=69:69:69/qpstep=4/cplxblur=20.0/qblur=0.5/vbv_maxrate=10000/vbv_bufsize=10000/nal_hrd=none/filler=0/ip_ratio=1.40/aq=3:1.00/aq-sensitivity=10.00/aq-factor=1.00:1.00:1.00/aq2=1:0.90/aq2-sensitivity=15.00/aq2-factor=1.00:1.00:1.00/aq3=4:[0.50:0.50]:[0.50:0.50]:[0.50:0.50]:[0.50:0.50]/aq3-sensitivity=10.00/aq3-factor=[1.00:1.00]:[1.00:1.00]:[1.00:1.00]/aq3-boundary=192:64:24
    Encoded date : UTC 2017-01-21 12:54:00
    Tagged date : UTC 2017-01-21 13:00:37
    Color range : Limited
    Color primaries : BT.709
    Transfer characteristics : BT.709
    Matrix coefficients : BT.709
    Menus : 8
    Audio #1
    ID : 2
    Format : AAC
    Format/Info : Advanced Audio Codec
    Format profile : LC
    Codec ID : 40
    Duration : 1 h 29 min
    Source duration : 1 h 29 min
    Bit rate mode : Variable
    Bit rate : 132 kb/s
    Maximum bit rate : 151 kb/s
    Channel(s) : 2 channels
    Channel positions : Front: L R
    Sampling rate : 48.0 kHz
    Frame rate : 46.875 FPS (1024 spf)
    Compression mode : Lossy
    Stream size : 84.8 MiB (4%)
    Source stream size : 84.8 MiB (4%)
    Language : Russian
    Default : Yes
    Alternate group : 1
    Encoded date : UTC 2017-01-21 12:54:00
    Tagged date : UTC 2017-01-21 13:00:37
    Audio #2
    ID : 3
    Format : AAC
    Format/Info : Advanced Audio Codec
    Format profile : LC
    Codec ID : 40
    Duration : 1 h 29 min
    Source duration : 1 h 29 min
    Bit rate mode : Variable
    Bit rate : 132 kb/s
    Maximum bit rate : 153 kb/s
    Channel(s) : 2 channels
    Channel positions : Front: L R
    Sampling rate : 48.0 kHz
    Frame rate : 46.875 FPS (1024 spf)
    Compression mode : Lossy
    Stream size : 84.8 MiB (4%)
    Source stream size : 84.8 MiB (4%)
    Language : Russian
    Default : No
    Alternate group : 1
    Encoded date : UTC 2017-01-21 12:54:00
    Tagged date : UTC 2017-01-21 13:00:37
    Audio #3
    ID : 4
    Format : AC-3
    Format/Info : Audio Coding 3
    Mode extension : CM (complete main)
    Format settings, Endianness : Big
    Codec ID : ac-3
    Duration : 1 h 29 min
    Bit rate mode : Constant
    Bit rate : 192 kb/s
    Channel(s) : 1 channel
    Channel positions : Front: C
    Sampling rate : 48.0 kHz
    Frame rate : 31.250 FPS (1536 spf)
    Bit depth : 16 bits
    Compression mode : Lossy
    Stream size : 123 MiB (7%)
    Language : Ukrainian
    Default : No
    Alternate group : 1
    Encoded date : UTC 2017-01-21 12:54:00
    Tagged date : UTC 2017-01-21 13:00:37
    Audio #4
    ID : 5
    Format : AAC
    Format/Info : Advanced Audio Codec
    Format profile : LC
    Codec ID : 40
    Duration : 1 h 29 min
    Source duration : 1 h 29 min
    Bit rate mode : Variable
    Bit rate : 132 kb/s
    Maximum bit rate : 161 kb/s
    Channel(s) : 2 channels
    Channel positions : Front: L R
    Sampling rate : 48.0 kHz
    Frame rate : 46.875 FPS (1024 spf)
    Compression mode : Lossy
    Stream size : 84.8 MiB (4%)
    Source stream size : 84.8 MiB (4%)
    Language : French
    Default : No
    Alternate group : 1
    Encoded date : UTC 2017-01-21 12:54:00
    Tagged date : UTC 2017-01-21 13:00:37
    Text #1
    ID : 6
    Format : Timed Text
    Muxing mode : sbtl
    Codec ID : tx3g
    Duration : 1 h 25 min
    Bit rate mode : Variable
    Bit rate : 122 b/s
    Stream size : 76.4 KiB (0%)
    Language : Russian
    Default : Yes
    Forced : No
    Alternate group : 2
    Encoded date : UTC 2017-01-21 12:54:00
    Tagged date : UTC 2017-01-21 13:00:37
    Text #2
    ID : 7
    Format : Timed Text
    Muxing mode : sbtl
    Codec ID : tx3g
    Duration : 1 h 29 min
    Bit rate mode : Variable
    Bit rate : 48 b/s
    Stream size : 31.4 KiB (0%)
    Language : English
    Default : No
    Forced : No
    Alternate group : 2
    Encoded date : UTC 2017-01-21 12:54:00
    Tagged date : UTC 2017-01-21 13:00:37
    Menu
    ID : 8
    Codec ID : text
    Duration : 1 h 29 min
    Language : English
    Encoded date : UTC 2017-01-21 13:00:37
    Tagged date : UTC 2017-01-21 13:00:37
    Bit rate mode : CBR
    Menu For : 1
    00:00:00.000 : 00:00:00.000
    00:07:14.559 : 00:07:14.559
    00:13:02.364 : 00:13:02.364
    00:17:40.768 : 00:17:40.768
    00:21:46.012 : 00:21:46.012
    00:28:42.886 : 00:28:42.886
    00:34:32.777 : 00:34:32.777
    00:38:56.333 : 00:38:56.333
    00:47:43.568 : 00:47:43.568
    00:53:46.347 : 00:53:46.347
    00:58:44.478 : 00:58:44.478
    01:04:58.561 : 01:04:58.561
    01:09:08.769 : 01:09:08.769
    01:11:46.091 : 01:11:46.091
    01:21:48.278 : 01:21:48.278
    01:25:22.617 : 01:25:22.617
    Скриншоты:



    Скриншоты для ознакомления



    Прямая ссылка скачивания через uTorrent


    Такси: Квадрология/Taxi: 4-Movie Collection (1998/2000/2003/2007) BDRip [H.264] [MP4|1024x436]
    загрузка...
    Рейтинг →
     (голосов: 1, оценка 3/5, голосовать можно 1 раз )

    Другие торренты по теме:

  • Такси: Квадрология / Taxi: 4-Movie Collection (1998 / 2000 / 2003 / 2007) BDRip [H.264] [MP4|1280x544]
  • Такси / Taxi (1998-2007) BDRip [H.264 / 1080p-LQ] [Квадрология]


    • Комментарии (0):

      Информация

      Информация

        Посетители, находящиеся в группе Гости, не могут оставлять комментарии в данной новости.

        ↓ Меню




        ↓ Опрос

        Вы добавили сайт в закладки?
        Да
        Нет


        Top 10 за месяц (КПК и мобильные)