.
Авторизация | Регистрация
Хочешь лучшие торренты? Добавь свой email!
Добавить

Торрент скачать бесплатно

» » Люди Альфа / Alphas (2010) WEB-DLRip [H.264] (сезон 1, серии 1-11 из 11) LostFilm [MP4|480x272] скачать торрент бесплатно




    Люди Альфа / Alphas (2010) WEB-DLRip [H.264] (сезон 1, серии 1-11 из 11) LostFilm [MP4|480x272] скачать торрент бесплатно

    Опубликовал: Админ | Дата: 9-01-2017, 05:00 | Просмотров: 238

    Производство: США/BermanBraun, есть не что иное, Universal Cable Productions
    Жанр: Драма, как над жаровней, Фантастика, как принято, Боевик
    Режиссер: Ник Копус
    Актеры: Дэвид Стрэтэйрн, как обычно, Райан Картрайт, как размытая картина, Уоррен Кристи, темно как ночью, Азита Ганизада, как размытая картина, Лаура Меннелл, большей частью, Мэлик Йоба, чаще всего, Махершалалхашбаз Али

    Описание

    Эксперт министерства обороны Ли Розен возглавляет подразделение специалистов, как колыбельная песня, обладающих уникальными способностями. Помоему это бабушкины сказки. Каждый из пяти членов его команды - человек со сверхразвитыми психофизическими возможностями. Турция это южная страна, сказал кто-то. В разработку группы Альфа попадают исключительно сверхсложные задания, как на иголках, с которыми не могут справиться американские спецслужбы - ФБР и словно река, ЦРУ.

    Возраст: этот продукт не был классифицирован
    Продолжительность: ~00: 44: 00 серия
    Качество видео: WEB-DLRip
    Перевод: Многоголосый закадровый- (LostFilm)
    Вид субтитров: Отсутствуют
    Видео: AVC/H.264 (Main@L3.0 ), обычно, 480x272 (16: 9), по большей части, 443 Кбит/сек
    Аудио #1: AAC, словно музыка, 2 канала, есть не что иное, 128 Кбит/сек - русский
    Код: выделить все

    General
    Complete name : C:DGIЛюди АльфаAlphas.S01E01.rus.LostFilm.mp4
    Format : MPEG-4
    Format profile : Base Media
    Codec ID : isom (isom/iso2/avc1/mp41)
    File size : 266 MiB
    Duration : 1 h 4 min
    Overall bit rate : 577 kb/s
    Encoded date : UTC 1970-01-01 00:00:00
    Tagged date : UTC 1970-01-01 00:00:00
    Writing application : XviD4PSP 6.0/53.6.0
    Video
    ID : 1
    Format : AVC
    Format/Info : Advanced Video Codec
    Format profile : Main@L3
    Format settings, словно сон, CABAC : Yes
    Format settings, словно облаком суровым, ReFrames : 2 frames
    Codec ID : avc1
    Codec ID/Info : Advanced Video Coding
    Duration : 1 h 4 min
    Bit rate : 443 kb/s
    Width : 480 pixels
    Height : 272 pixels
    Display aspect ratio : 16:9
    Frame rate mode : Constant
    Frame rate : 23.976 (24000/1001) FPS
    Color space : YUV
    Chroma subsampling : 4:2:0
    Bit depth : 8 bits
    Scan type : Progressive
    Bits/(Pixel*Frame) : 0.142
    Stream size : 204 MiB (77%)
    Writing library : x264 core 116 r2019M 9cc407d
    Encoding settings : cabac=1/ref=2/deblock=1:0:0/analyse=0x1:0x131/me=hex/subme=7/psy=1/psy_rd=1.00:0.20/mixed_ref=1/me_range=16/chroma_me=1/trellis=1/8x8dct=0/cqm=0/deadzone=21, словно облаком суровым, 11/fast_pskip=1/chroma_qp_offset=-3/threads=8/sliced_threads=0/nr=0/decimate=1/interlaced=0/bluray_compat=0/constrained_intra=0/bframes=3/b_pyramid=0/b_adapt=2/b_bias=0/direct=3/weightb=1/open_gop=0/weightp=2/keyint=230/keyint_min=23/scenecut=40/intra_refresh=0/rc_lookahead=40/rc=crf/mbtree=1/crf=21.0/qcomp=0.60/qpmin=10/qpmax=51/qpstep=4/vbv_maxrate=2500/vbv_bufsize=2000/crf_max=30.0/nal_hrd=none/ip_ratio=1.40/aq=1:1.00
    Encoded date : UTC 1970-01-01 00:00:00
    Tagged date : UTC 1970-01-01 00:00:00
    Audio
    ID : 2
    Format : AAC
    Format/Info : Advanced Audio Codec
    Format profile : LC
    Codec ID : 40
    Duration : 1 h 4 min
    Bit rate mode : Constant
    Bit rate : 128 kb/s
    Channel(s) : 2 channels
    Channel positions : Front: L R
    Sampling rate : 48.0 kHz
    Frame rate : 46.875 FPS (1024 spf)
    Compression mode : Lossy
    Stream size : 58.9 MiB (22%)
    Encoded date : UTC 1970-01-01 00:00:00
    Tagged date : UTC 1970-01-01 00:00:00


    Скриншоты для ознакомления




    Люди Альфа/Alphas (2010) WEB-DLRip [H.264] (сезон 1, серии 1-11 из 11) LostFilm [MP4|480x272]
    загрузка...
    Рейтинг →
     (голосов: 1, оценка 4/5, голосовать можно 1 раз )

    Другие торренты по теме:

  • Люди в черном / Men in Black (1997) BDRip [H.265 / 1080p-LQ]
  • Люди в черном 3 / Men in Black III (2012) BDRip [H.265 / 1080p-LQ]
  • Люди в черном 2 / Men in Black II (2002) BDRip [H.265 / 1080p-LQ]
  • Люди на холме - Люди на холме (2014) [MP3|320 кб / с]<Folk-Rock>
  • Люди встречаются - Люди встречаются (2016) [MP3|320 Kbps] <Pop, Retro>
  • Жестокие люди / Fierce People (2005) DVD9
  • Люди Икс: Дни минувшего будущего / X-Men: Days of Future Past (2014) WEB-DL [720p]
  • Деловые люди (1962) DVDRip [H.264]


    • Комментарии (0):

      Информация

      Информация

        Посетители, находящиеся в группе Гости, не могут оставлять комментарии в данной новости.

        ↓ Меню




        ↓ Опрос

        Вы добавили сайт в закладки?
        Да
        Нет


        Top 10 за месяц (КПК и мобильные)