.
Авторизация | Регистрация
Хочешь лучшие торренты? Добавь свой email!
Добавить

Торрент скачать бесплатно

» » Oasis: Supersonic / Oasis: Supersonic (2016) HDRip [H.264] [MP4|1280x688] торрент скачать бесплатно




    Oasis: Supersonic / Oasis: Supersonic (2016) HDRip [H.264] [MP4|1280x688] торрент скачать бесплатно

    Опубликовал: Админ | Дата: 18-11-2016, 04:01 | Просмотров: 130

    Платформа или формат: MP4|1280x688
    Производство: Великобритания/Mint Pictures, Nemperor, On The Corner Films
    Жанр: Документальный, Музыка
    Режиссер: Mat Whitecross
    Актеры: Paul Arthurs, Christine Biller, Mark Coyle

    Описание

    Кинолента получила название идентичное дебютному синглу группы – Supersonic. Фильм включает неизданные ранее архивные материалы и едва заметно интервью с участниками группы, охватывающие всю историю Oasis с момента, как Лиам и Ноэль Галлахеры начали создавать музыку и до наших дней. Оба брата согласились принять участие в съемках.Создатели фильма Supersonic, как это обычно бывает в документальных фильмах подобного рода, попытались заглянуть в каждую тайную дверь Oasis, получив доступ к архивам и эксклюзивным материалам, связанными с группой.

    Возраст: 16+ (зрителям, достигшим 16 лет)
    Рейтинг MPAA: R (лицам до 17 лет обязательно присутствие взрослого)
    Дата мировой премьеры: 07.10.2016
    Продолжительность: ~02: 00: 00
    Качество видео: HDRip
    Перевод: Отсутствует
    Язык: Английский
    Видео: AVC/H.264, 1280x688, ~2031 Kbps
    Аудио: AAC, 2 ch, 192 Kbps, VBR

    Общее
    Полное имя : E: Oasis_ SupersonicNNMClub.mp4
    Формат : MPEG-4
    Профиль формата : Base Media/Version 2
    Идентификатор кодека : mp42 (isom/mp42)
    Размер файла : 1, 82 Гбайт
    Продолжительность : 1 ч. 57 м.
    Режим общего битрейта : Переменный
    Общий поток : 2225 Кбит/сек
    Видео
    Идентификатор : 1
    Формат : AVC
    Формат/Информация : Advanced Video Codec
    Профиль формата : High@L3.1
    Параметр CABAC формата : Да
    Параметр ReFrames формата : 1 кадр
    Идентификатор кодека : avc1
    Идентификатор кодека/Информация : Advanced Video Coding
    Продолжительность : 1 ч. Самое интересное в это истории, что об этом Евросоюз ничего не знал. 57 м.
    Битрейт : 2031 Кбит/сек
    Максимальный битрейт : 9140 Кбит/сек
    Ширина : 1280 пикселей
    Высота : 688 пикселей
    Соотношение сторон : 1, 85: 1
    Режим частоты кадров : Переменный
    Частота кадров : 24, 870 кадров/сек
    Минимальная частота кадров : 8, 333 кадров/сек
    Максимальная частота кадров : 25, 000 кадров/сек
    Цветовое пространство : YUV
    Субдискретизация насыщенности : 4: 2: 0
    Битовая глубина : 8 бит
    Тип развёртки : Прогрессивная
    Бит/(Пиксели*Кадры) : 0.093
    Размер потока : 1, 66 Гбайт (91%)
    Аудио
    Идентификатор : 2
    Формат : AAC
    Формат/Информация : Advanced Audio Codec
    Профиль формата : LC
    Идентификатор кодека : 40
    Продолжительность : 1 ч. 57 м.
    Вид битрейта : Переменный
    Битрейт : 192 Кбит/сек
    Максимальный битрейт : 201 Кбит/сек
    Каналы : 2 канала
    Расположение каналов : Front: L R
    Частота : 44, 1 КГц
    Частота кадров : 43, 066 кадра/сек (1024 spf)
    Метод сжатия : С потерями
    Размер потока : 161 Мбайт (9%)
    Заголовок : IsoMedia File Produced by Google, 5-11-2011
    Язык : English


    Скриншоты для ознакомления




    Oasis: Supersonic/Oasis: Supersonic (2016) HDRip [H.264] [MP4|1280x688]
    загрузка...
    Рейтинг →
     (голосов: 1, оценка 3/5, голосовать можно 1 раз )

    Другие торренты по теме:

  • Oasis: Supersonic (2016) HDRip [H.264] [MP4|1280x694]


    • Комментарии (0):

      Информация

      Информация

        Посетители, находящиеся в группе Гости, не могут оставлять комментарии в данной новости.

        ↓ Меню




        ↓ Опрос

        Вы добавили сайт в закладки?
        Да
        Нет


        Top 10 за месяц (КПК и мобильные)