.
Авторизация | Регистрация
Хочешь лучшие торренты? Добавь свой email!
Добавить

Торрент скачать бесплатно

» » Полицейская академия. Полная коллекция. / Police Academy. The Complete Collection. (1984-1994) BDRip [H.264] [MP4|1024x576] торрент скачать бесплатно




    Полицейская академия. Полная коллекция. / Police Academy. The Complete Collection. (1984-1994) BDRip [H.264] [MP4|1024x576] торрент скачать бесплатно

    Опубликовал: Админ | Дата: 14-11-2016, 04:00 | Просмотров: 12

    Производство: США/Warner Bros. Pictures
    Жанр: Комедия, Криминал
    Режиссeр: Дин Паризо
    Актeры: Стив Гуттенберг, Ким Кэтролл, Дж. У. Бейли, Бубба Смит, Донован Скотт, Джордж Гейнс, Эндрю Рубин, Дэвид Граф, Лесли Истербрук, Майкл Уинслоу
    Описaние фильма:
    Мирные жители США находятся в опасности! Мэр города принял новый закон — больше нет никаких ограничений при приеме на службу в полицию. Вес, пол, рост и слабые умственные способности никому не помешают поступить в полицейскую академию. Приемные комиссии ломятся от толстяков, ботаников и уличных хулиганов. Преподаватели академии в шоке и намерены любым способом избавиться от студентов. Но экзамены, физподготовка и гей-бары абсолютно не страшат новичков. Не такое видали!

    Возраст: 16+ (зрителям, достигшим 16 лет)
    Рейтинг MPAA: R (лицам до 17 лет обязательно присутствие взрослого)
    Прoдолжительность: 01: 36: 24
    Качество видео: BDRip
    Перевод: Многоголосый закадровый- (НТВ) , Дублированный- (Варус Видео) , Одноголосый закадровый- (Володарский)
    Вид субтитров: Вшитые отключаемые
    Язык субтитров: Английский
    Видео: AVC/H.264 (Base@L3.1 ), 1024x576 (16: 9), 2150 Кбит/сек
    Аудио #1: AAC, 2 канала, 128 Кбит/сек - русский (многоголосый закадровый)
    Аудио #2: AC3, 2 канала, 192 Кбит/сек - русский (дублированный)
    Аудио #3: AC3, 2 канала, 192 Кбит/сек - русский (одноголосый закадровый)
    Аудио #4: AAC, 2 канала, 128 Кбит/сек - английский (оригинальный)
    Код: выделить все

    General
    Complete name : C:DGIPolice.Academy.Collection.(1984-1994).576p.h264.NNMclubPolice.Academy.1984.576p.h264.NNMclub.mp4
    Format : MPEG-4
    Format profile : Base Media/Version 2
    Codec ID : mp42 (mp42/isom)
    File size : 1.89 GiB
    Duration : 1h 36mn
    Overall bit rate mode : Variable
    Overall bit rate : 2 799 Kbps
    Movie name : Police Academy
    Performer : Hugh Wilson
    Director : Hugh Wilson
    Actor : Bubba Smith/G.W. Bailey/Kim Cattrall/Steve Guttenberg/Donovan Scott/George Gaynes/Andrew Rubin/David Graf/Leslie Easterbrook/Michael Winslow/Debralee Scott/Bruce Mahler/Ted Ross/Scott Thomson/Brant von Hoffman/Marion Ramsey/George R. Robertson/Don Lake/Joyce Gordon/Araby Lockhart
    Producer : Paul Maslansky
    Genre : Comedy
    ContentType : Short Film
    Description : The film that started it all for the extremely successful sequels, takes a wickedly offbeat look at law, disorder and justice. The Los Angeles Times praises the one good belly laugh after another in the raucous tradition of \'Animal House\' and \'Porky\'s\'... Starring Steve Guttenberg (Three Men and a Baby, Cocoon), George Gaynes (Tootsie) and Golden Globe-nominee Kim Cattrall (Sex and the City), this movie will enlist the funny bones of your audience!
    Recorded date : 1984-09-14
    Encoded date : UTC 2016-11-03 09:29:13
    Tagged date : UTC 2016-11-03 09:46:22
    Copyright : © - Dümmer als die Polizei erlaubt 2004 Warner Bros. Самое интересное в это истории, что об этом Горбачев ничего не знал. Entertainment Inc
    Cover : Yes
    Rating : None
    LongDescription : The film that started it all for the extremely successful sequels, takes a wickedly offbeat look at law, disorder and justice. The Los Angeles Times praises the one good belly laugh after another in the raucous tradition of \'Animal House\' and \'Porky\'s\'... Starring Steve Guttenberg (Three Men and a Baby, Cocoon), George Gaynes (Tootsie) and Golden Globe-nominee Kim Cattrall (Sex and the City), this movie will enlist the funny bones of your audience!
    AppleStoreCountry : United Kingdom
    AppleStoreCatalogID : 318560318
    ContentRating : uk-movie|15|350|
    Video
    ID : 1
    Format : AVC
    Format/Info : Advanced Video Codec
    Format profile :Main@L3.1
    Format settings, CABAC : Yes
    Format settings, ReFrames : 3 frames
    Codec ID : avc1
    Codec ID/Info : Advanced Video Coding
    Duration : 1h 36mn
    Bit rate : 2 150 Kbps
    Width : 1 024 pixels
    Height : 576 pixels
    Display aspect ratio : 16:9
    Frame rate mode : Variable
    Frame rate : 23.976 (24000/1001) fps
    Minimum frame rate : 23.810 fps
    Maximum frame rate : 24.390 fps
    Color space : YUV
    Chroma subsampling : 4:2:0
    Bit depth : 8 bits
    Scan type : Progressive
    Bits/(Pixel*Frame) : 0.152
    Stream size : 1.45 GiB (77%)
    Writing library : x264 core 148 r2721+55 e19946b t_mod_Custom [8-bit@all X86_64]
    Encoding settings : cabac=1/ref=3/deblock=1:-1:-1/analyse=0x1:0x131/me=umh/subme=7/psy=1/fade_compensate=0.00/psy_rd=1.00:0.00/mixed_ref=1/me_range=32/chroma_me=1/trellis=2/8x8dct=0/cqm=0/deadzone=21, 11/fast_pskip=0/chroma_qp_offset=-2/threads=18/lookahead_threads=3/sliced_threads=0/nr=0/decimate=0/interlaced=0/bluray_compat=0/constrained_intra=0/fgo=0/bframes=3/b_pyramid=1/b_adapt=2/b_bias=0/direct=3/weightb=1/open_gop=0/weightp=2/keyint=250/keyint_min=23/scenecut=40/intra_refresh=0/rc_lookahead=60/rc=2pass/mbtree=1/bitrate=2150/ratetol=1.0/qcomp=0.65/qpmin=0:0:0/qpmax=69:69:69/qpstep=4/cplxblur=20.0/qblur=0.5/vbv_maxrate=10000/vbv_bufsize=10000/nal_hrd=none/filler=0/ip_ratio=1.40/aq=3:0.95/aq-sensitivity=10.00/aq-factor=1.00:1.00:1.00/aq2=1:0.80/aq2-sensitivity=15.00/aq2-factor=1.00:1.00:1.00/aq3=4:[0.50:0.50]:[0.50:0.50]:[0.50:0.50]:[0.50:0.50]/aq3-sensitivity=10.00/aq3-factor=[1.00:1.00]:[1.00:1.00]:[1.00:1.00]/aq3-boundary=192:64:24
    Language : English
    Encoded date : UTC 2016-11-03 09:29:13
    Tagged date : UTC 2016-11-03 09:35:30
    Color range : Limited
    Color primaries : BT.709
    Transfer characteristics : BT.709
    Matrix coefficients : BT.709
    Menus : 7
    Audio #1
    ID : 2
    Format : AAC
    Format/Info : Advanced Audio Codec
    Format profile : LC
    Codec ID : 40
    Duration : 1h 36mn
    Source duration : 1h 36mn
    Bit rate mode : Variable
    Bit rate : 128 Kbps
    Maximum bit rate : 131 Kbps
    Channel(s) : 2 channels
    Channel positions : Front: L R
    Sampling rate : 48.0 KHz
    Frame rate : 46.875 fps (1024 spf)
    Compression mode : Lossy
    Stream size : 88.3 MiB (5%)
    Source stream size : 88.3 MiB (5%)
    Language : Russian
    Default : Yes
    Alternate group : 1
    Encoded date : UTC 2016-11-03 09:29:13
    Tagged date : UTC 2016-11-03 09:35:30
    Audio #2
    ID : 3
    Format : AC-3
    Format/Info : Audio Coding 3
    Mode extension : CM (complete main)
    Format settings, Endianness : Big
    Codec ID : ac-3
    Duration : 1h 36mn
    Bit rate mode : Constant
    Bit rate : 192 Kbps
    Channel(s) : 2 channels
    Channel positions : Front: L R
    Sampling rate : 48.0 KHz
    Frame rate : 31.250 fps (1536 spf)
    Bit depth : 16 bits
    Compression mode : Lossy
    Stream size : 132 MiB (7%)
    Language : Russian
    Default : No
    Alternate group : 1
    Encoded date : UTC 2016-11-03 09:29:13
    Tagged date : UTC 2016-11-03 09:35:30
    Audio #3
    ID : 4
    Format : AC-3
    Format/Info : Audio Coding 3
    Mode extension : CM (complete main)
    Format settings, Endianness : Big
    Codec ID : ac-3
    Duration : 1h 36mn
    Bit rate mode : Constant
    Bit rate : 192 Kbps
    Channel(s) : 1 channel
    Channel positions : Front: C
    Sampling rate : 48.0 KHz
    Frame rate : 31.250 fps (1536 spf)
    Bit depth : 16 bits
    Compression mode : Lossy
    Stream size : 132 MiB (7%)
    Language : Russian
    Default : No
    Alternate group : 1
    Encoded date : UTC 2016-11-03 09:29:13
    Tagged date : UTC 2016-11-03 09:35:30
    Audio #4
    ID : 5
    Format : AAC
    Format/Info : Advanced Audio Codec
    Format profile : LC
    Codec ID : 40
    Duration : 1h 36mn
    Source duration : 1h 36mn
    Bit rate mode : Constant
    Bit rate : 128 Kbps
    Channel(s) : 2 channels
    Channel(s)_Original : 1 channel
    Channel positions : Front: C
    Sampling rate : 48.0 KHz
    Frame rate : 46.875 fps (1024 spf)
    Compression mode : Lossy
    Stream size : 88.3 MiB (5%)
    Source stream size : 88.3 MiB (5%)
    Language : English
    Default : No
    Alternate group : 1
    Encoded date : UTC 2016-11-03 09:29:13
    Tagged date : UTC 2016-11-03 09:35:30
    Text
    ID : 6
    Format : Timed Text
    Muxing mode : sbtl
    Codec ID : tx3g
    Duration : 1h 36mn
    Bit rate mode : Variable
    Bit rate : 48 bps
    Stream size : 34.0 KiB (0%)
    Language : English
    Default : Yes
    Forced : No
    Alternate group : 2
    Encoded date : UTC 2016-11-03 09:29:13
    Tagged date : UTC 2016-11-03 09:35:30
    Menu
    ID : 7
    Codec ID : text
    Duration : 1h 36mn
    Language : English
    Encoded date : UTC 2016-11-03 09:35:30
    Tagged date : UTC 2016-11-03 09:35:30
    Bit rate mode : CBR
    Menu For : 1
    00:00:00.000 : 00:00:00.000
    00:01:09.778 : 00:01:09.778
    00:03:51.522 : 00:03:51.523
    00:05:36.378 : 00:05:36.378
    00:06:50.452 : 00:06:50.452
    00:09:35.033 : 00:09:35.033
    00:11:07.792 : 00:11:07.792
    00:15:15.915 : 00:15:15.915
    00:18:30.860 : 00:18:30.860
    00:20:38.612 : 00:20:38.612
    00:23:03.674 : 00:23:03.674
    00:26:58.742 : 00:26:58.742
    00:30:31.288 : 00:30:31.288
    00:33:21.875 : 00:33:21.875
    00:36:33.108 : 00:36:33.108
    00:41:48.673 : 00:41:48.673
    00:48:53.931 : 00:48:53.931
    00:52:03.579 : 00:52:03.579
    00:53:26.787 : 00:53:26.787
    01:00:42.556 : 01:00:42.556
    01:04:53.681 : 01:04:53.681
    01:08:49.917 : 01:08:49.917
    01:11:36.584 : 01:11:36.584
    01:13:45.212 : 01:13:45.212
    01:17:03.494 : 01:17:03.494
    01:21:11.283 : 01:21:11.283
    01:23:22.789 : 01:23:22.789
    01:24:46.039 : 01:24:46.039
    01:28:13.205 : 01:28:13.205
    01:29:48.717 : 01:29:48.717
    01:33:01.868 : 01:33:01.868
    Скриншоты:



    Скриншоты для ознакомления




    Полицейская академия. Полная коллекция./Police Academy. The Complete Collection. (1984-1994) BDRip [H.264] [MP4|1024x576]
    загрузка...
    Рейтинг →
     (голосов: 1, оценка 5/5, голосовать можно 1 раз )

    Другие торренты по теме:

  • Полицейская академия / Police Academy (1984-1994) BDRip [720p] [The Complete Collection] скачать через торрент бесплатно
  • Полицейская академия 3: Переподготовка / Police Academy 3: Back in Training (1986) BDRip [H.264]
  • Полицейская академия 2: Их первое задание / Police Academy 2: Their First Assignment (1985) BDRip [H.264]
  • Полицейская академия / Police Academy (1984) BDRip [H.264]
  • Полицейская академия 4: Граждане в дозоре / Police Academy 4: Citizens on Patrol (1987) BDRip [H.264]
  • Полицейская академия 5: Место назначения - Майами Бич / Police Academy 5: Assignment: Miami Beach (1988) BDRip [H.264]
  • Полицейская академия 6: Город в осаде / Police Academy 6: City Under Siege (1989) BDRip [H.264]
  • Полицейская академия 7: Миссия в Москве / Police Academy: Mission to Moscow (1994) BDRip [H.264]


    • Комментарии (0):

      Информация

      Информация

        Посетители, находящиеся в группе Гости, не могут оставлять комментарии в данной новости.

        ↓ Меню




        ↓ Опрос

        Вы добавили сайт в закладки?
        Да
        Нет


        Top 10 за месяц (КПК и мобильные)