.
Авторизация | Регистрация
Хочешь лучшие торренты? Добавь свой email!
Добавить

Торрент скачать бесплатно

» » Легенды завтрашнего дня / DCs Legends of Tomorrow (2016) WEB-DL [H.264] (сезон 2, серии 1-5 из 17) LostFilm [MP4|1280x718] торрент скачать бесплатно




    Легенды завтрашнего дня / DCs Legends of Tomorrow (2016) WEB-DL [H.264] (сезон 2, серии 1-5 из 17) LostFilm [MP4|1280x718] торрент скачать бесплатно

    Опубликовал: Админ | Дата: 13-11-2016, 04:00 | Просмотров: 15

    Производство: США/Berlanti Productions, Bonanza Productions, DC Entertainment
    Жанр: фантастика, боевик
    Режиссер: Дермотт Даунс, Глен Винтер, Джо Данте
    Актеры: Виктор Гарбер, Брэндон Рут, Кейти Лотц, Артур Дарвилл, Сиара Рене, Франц Драмех, Доминик Пёрселл, Вентворт Миллер, Каспер Крамп, Фальк Хеншел и др.

    Описание

    Увидев будущее, которого обязательно нужно избежать, Рип Хантер, путешественник во времени, собирает команду из героев и злодеев, чтобы противостоять смертельной угрозе. На кону стоит не только наша планета, но и все время в целом. Сможет ли эта команда победить бессмертное зло, абсолютно непохожее на то, что они видели раньше?

    Дата мировой премьеры: 13 октября 2016 (2 сезон)
    Продолжительность: ~00: 44: 00 серия
    Качество видео: WEB-DL
    Перевод: Многоголосый закадровый, профессиональный -LostFilm
    Реклама: присутствует заставка и логотип LostFilm
    Видео: AVC/H.264 (High@L3.1 ), 1280x718 (16: 9), ~4000 Кбит/сек
    Аудио: AAC, 2 канала, 265 Кбит/сек - русский (многоголосый закадровый)
    Код: выделить все

    Полное имя : F:DC\'s_Legends_of_Tomorrow_s2_WEB-DL720p_x264_LostFilm_[NNMClub]DCs.Legends.of.Tomorrow.S02E01.720p.WEB.rus.LostFilm.TV.mp4
    Формат : MPEG-4
    Профиль формата : Base Media
    Идентификатор кодека : isom (isom)
    Размер файла : 1, 28 Гбайт
    Продолжительность : 42 м.
    Режим общего битрейта : Переменный
    Общий поток : 4301 Кбит/сек
    Коллекция : Легенды завтрашнего дня
    Сезон : 2
    Альбом : Легенды завтрашнего дня, Сезон 2
    Альбом/Исполнитель : Легенды завтрашнего дня
    Часть : 1
    Часть/Положение : 2
    Трек : Вне времени
    Трек/Положение : 1
    Исполнитель : Легенды завтрашнего дня
    Жанр : Sci-Fi Fantasy
    Тип содержимого : TV Show
    Дата записи : 2016
    Дата кодирования : UTC 2016-10-15 18:39:16
    Дата пометки : UTC 2016-10-15 18:39:16
    Программа кодирования : Yamb 2.1.0.0 [http://yamb.unite-video.com]/LostCoder
    Авторское право : LostFilm.TV (c)
    Обложка : Yes
    Примечание : В 2166 году могущественный человек по имени Вандал Сэвидж добился немыслимого — завоевал весь мир. Путешественник во времени Рип Хантер видел, какое будущее ожидает человечество, если беспощадный злодей осуществит свой коварный план.
    Part_ID : 201
    Видео
    Идентификатор : 1
    Формат : AVC
    Формат/Информация : Advanced Video Codec
    Профиль формата :High@L3.1
    Параметр CABAC формата : Нет
    Параметр ReFrames формата : 2 кадра
    Идентификатор кодека : avc1
    Идентификатор кодека/Информация : Advanced Video Coding
    Продолжительность : 42 м.
    Битрейт : 4000 Кбит/сек
    Максимальный битрейт : 13, 6 Мбит/сек
    Ширина : 1280 пикселей
    Высота : 718 пикселей
    Соотношение сторон : 16:9
    Режим частоты кадров : Переменный
    Частота кадров : 23, 976 кадра/сек
    Минимальная частота кадров : 23, 974 кадра/сек
    Максимальная частота кадров : 23, 981 кадра/сек
    Цветовое пространство : YUV
    Субдискретизация насыщенности : 4:2:0
    Битовая глубина : 8 бит
    Тип развёртки : Прогрессивная
    Бит/(Пиксели*Кадры) : 0.182
    Размер потока : 1, 20 Гбайт (94%)
    Библиотека кодирования : x264 core 112 r1834 a51816a
    Настройки программы : cabac=1/ref=4/deblock=1:-3:-2/analyse=0x3:0x113/me=hex/subme=7/psy=1/psy_rd=1.00:0.00/mixed_ref=1/me_range=16/chroma_me=1/trellis=1/8x8dct=1/cqm=0/deadzone=21, 11/fast_pskip=1/chroma_qp_offset=-2/threads=6/sliced_threads=0/nr=0/decimate=1/interlaced=0/constrained_intra=0/bframes=5/b_pyramid=2/b_adapt=1/b_bias=0/direct=1/weightb=1/open_gop=0/weightp=2/keyint=250/keyint_min=25/scenecut=40/intra_refresh=0/rc_lookahead=40/rc=abr/mbtree=1/bitrate=4000/ratetol=1.0/qcomp=0.60/qpmin=0/qpmax=51/qpstep=4/vbv_maxrate=10000/vbv_bufsize=256000/ip_ratio=1.40/aq=1:1.00/nal_hrd=none
    Язык : English
    Дата пометки : UTC 2016-10-15 18:39:36
    Цветовой диапазон : Limited
    Основные цвета : BT.709
    Характеристики трансфера : BT.709
    Коэффициенты матрицы : BT.709
    Аудио
    Идентификатор : 2
    Формат : AAC
    Формат/Информация : Advanced Audio Codec
    Профиль формата : LC
    Идентификатор кодека : 40
    Продолжительность : 42 м.
    Вид битрейта : Переменный
    Битрейт : 265 Кбит/сек
    Максимальный битрейт : 322 Кбит/сек
    Каналы : 2 канала
    Расположение каналов : Front: L R
    Частота : 48, 0 КГц
    Частота кадров : 46, 875 кадров/сек (1024 spf)
    Метод сжатия : С потерями
    Размер потока : 80, 8 Мбайт (6%)
    Дата кодирования : UTC 2016-10-15 18:39:34
    Дата пометки : UTC 2016-10-15 18:39:36


    Скриншоты для ознакомления




    Легенды завтрашнего дня/DCs Legends of Tomorrow (2016) WEB-DL [H.264] (сезон 2, серии 1-5 из 17) LostFilm [MP4|1280x718]
    загрузка...
    Рейтинг →
     (голосов: 1, оценка 5/5, голосовать можно 1 раз )

    Другие торренты по теме:

  • Легенды завтрашнего дня / DCs Legends of Tomorrow (2017) WEBRip [H.264 / 720p-LQ] (сезон 3, серии 1-5 из 17) LostFilm (обновляемая)
  • Легенды завтрашнего дня / DCs Legends of Tomorrow (2016) WEB-DL [H.264 / 1080p-LQ] (сезон 1, серии 1 из 16) LostFilm (обновляемая)
  • Легенды завтрашнего дня / DCs Legends of Tomorrow (2016) WEB-DLRip (сезон 1, серии 1 из 16) LostFilm (обновляемая)
  • Легенды завтрашнего дня / DCs Legends of Tomorrow (2016) WEB-DLRip (сезон 1, серии 1 из 16) BaibaKo (обновляемая)
  • Легенды завтрашнего дня / DCs Legends of Tomorrow (2016) WEB-DLRip (сезон 1, серии 1 из 16) NewStudio (обновляемая)
  • Легенды завтрашнего дня / DCs Legends of Tomorrow (2016) WEB-DL [H.264] (сезон 1, серии 1 из 16) LostFilm [MP4|1280x718] (обновляемая)
  • Легенды завтрашнего дня / DCs Legends of Tomorrow (2016) WEB-DL [H.264 / 720p-LQ] (сезон 1, серии 1-4 из 16) BaibaKo (обновляемая)
  • Легенды завтрашнего дня / DCs Legends of Tomorrow (2016) HDTV [H.264 / 720p-LQ] (сезон 1, серия 12-13 из 16) [EN / RU, EN SUB]


    • Комментарии (0):

      Информация

      Информация

        Посетители, находящиеся в группе Гости, не могут оставлять комментарии в данной новости.

        ↓ Меню




        ↓ Опрос

        Вы добавили сайт в закладки?
        Да
        Нет


        Top 10 за месяц (КПК и мобильные)