.
Авторизация | Регистрация
Хочешь лучшие торренты? Добавь свой email!
Добавить

Торрент скачать бесплатно

» » Шакал (2016) HDTVRip [H.264] (сезон 1, серии 1-8 из 8) [MP4|1024x576] торрент скачать бесплатно




    Шакал (2016) HDTVRip [H.264] (сезон 1, серии 1-8 из 8) [MP4|1024x576] торрент скачать бесплатно

    Опубликовал: Админ | Дата: 4-11-2016, 04:01 | Просмотров: 15

    Производство: Россия/Красный квадрат, Студия Русский проект
    Жанр: Детектив
    Режиссер: Евгений Звездаков
    Актеры: Андрей Смоляков, Марина Александрова, Екатерина Климова, Вадим Андреев, Алексей Бардуков, Павел Чинарёв, Александра Бортич, Сергей Белов, Юрий Ицков, Андрей Феськов и др.

    Описание

    Начало 70-х годов. Майор Черкасов и его команда расследуют новое дело. На этот раз речь идет об ограблениях. А это сфера отдела по борьбе с хищениями социалистической собственности (ОБХСС). Во время грабежей бандиты беспощадно убивают свидетелей. Ограбления организованы четко и продумано. И готовит их кто-то очень осведомленный. Благодатная почва, сказал кто то из толпы, к чему не понятно. Руководство принимает решение объединить против беспредельщиков усилия двух ведомств московской милиции: МВД и ОБХСС. Вместе они готовят операцию по задержанию банды. Милиционерам придется столкнуться с хитрым и коварным противником. Благодатная почва, сказал кто то из толпы, к чему не понятно. И потребуются огромные усилия доблестной опергруппы и проницательного Черкасова, чтобы победить жестокого врага.

    Возраст: 16+ (зрителям, достигшим 16 лет)
    Продолжительность: ~00: 51: 00 серия
    Качество видео: HDTVRip
    Перевод: Не требуется- (русский, оригинальный)
    Вид субтитров: Отсутствуют
    Видео: AVC/H.264 (Main@L3.1 ), 1024x576 (16: 9), 1900 Кбит/сек
    Аудио #1: AAC, 2 канала, 128 Кбит/сек - русский (оригинальный)
    Код: выделить все

    General
    Complete name : C:DGIJackal (Season 1).576p.AAC.h264.NNMclubJackal.S01E01.576p.HDTVRip.AAC.h264.NNMclub.mp4
    Format : MPEG-4
    Format profile : Base Media/Version 2
    Codec ID : mp42 (mp42/isom)
    File size : 753 MiB
    Duration : 51mn 46s
    Overall bit rate mode : Variable
    Overall bit rate : 2 033 Kbps
    Season : 1
    Album : , Season 1
    Part : 1
    Track name/Position : 1
    Genre : Crime, Drama
    ContentType : TV Show
    Recorded date : 2016-10-17
    Encoded date : UTC 2016-11-01 16:39:59
    Tagged date : UTC 2016-11-02 14:17:19
    Cover : Yes
    Rating : None
    TVNetworkName : Первый канал
    Part_ID : 101
    Video
    ID : 1
    Format : AVC
    Format/Info : Advanced Video Codec
    Format profile :Main@L3.1
    Format settings, CABAC : Yes
    Format settings, ReFrames : 3 frames
    Codec ID : avc1
    Codec ID/Info : Advanced Video Coding
    Duration : 51mn 46s
    Bit rate : 1 900 Kbps
    Width : 1 024 pixels
    Height : 576 pixels
    Display aspect ratio : 16:9
    Frame rate mode : Constant
    Frame rate : 25.000 fps
    Color space : YUV
    Chroma subsampling : 4:2:0
    Bit depth : 8 bits
    Scan type : Progressive
    Bits/(Pixel*Frame) : 0.129
    Stream size : 703 MiB (93%)
    Writing library : x264 core 148 r2721+55 e19946b t_mod_Custom [8-bit@all X86_64]
    Encoding settings : cabac=1/ref=3/deblock=1:-1:-1/analyse=0x1:0x111/me=umh/subme=7/psy=1/fade_compensate=0.00/psy_rd=1.00:0.20/mixed_ref=1/me_range=32/chroma_me=1/trellis=2/8x8dct=0/cqm=0/deadzone=21, 11/fast_pskip=0/chroma_qp_offset=-3/threads=12/lookahead_threads=2/sliced_threads=0/nr=0/decimate=0/interlaced=0/bluray_compat=0/constrained_intra=0/fgo=0/bframes=2/b_pyramid=1/b_adapt=2/b_bias=0/direct=3/weightb=1/open_gop=0/weightp=2/keyint=250/keyint_min=25/scenecut=40/intra_refresh=0/rc_lookahead=50/rc=2pass/mbtree=1/bitrate=1900/ratetol=1.0/qcomp=0.60/qpmin=0:0:0/qpmax=69:69:69/qpstep=4/cplxblur=20.0/qblur=0.5/vbv_maxrate=10000/vbv_bufsize=10000/nal_hrd=none/filler=0/ip_ratio=1.40/aq=3:0.90/aq-sensitivity=10.00/aq-factor=1.00:1.00:1.00/aq2=1:0.80/aq2-sensitivity=15.00/aq2-factor=1.00:1.00:1.00/aq3=4:[0.50:0.50]:[0.50:0.50]:[0.50:0.50]:[0.50:0.50]/aq3-sensitivity=10.00/aq3-factor=[1.00:1.00]:[1.00:1.00]:[1.00:1.00]/aq3-boundary=192:64:24
    Encoded date : UTC 2016-11-01 16:39:59
    Tagged date : UTC 2016-11-01 16:43:22
    Color range : Limited
    Color primaries : BT.709
    Transfer characteristics : BT.709
    Matrix coefficients : BT.709
    Audio
    ID : 2
    Format : AAC
    Format/Info : Advanced Audio Codec
    Format profile : LC
    Codec ID : 40
    Duration : 51mn 46s
    Source duration : 51mn 46s
    Bit rate mode : Variable
    Bit rate : 128 Kbps
    Maximum bit rate : 132 Kbps
    Channel(s) : 2 channels
    Channel positions : Front: L R
    Sampling rate : 48.0 KHz
    Frame rate : 46.875 fps (1024 spf)
    Compression mode : Lossy
    Stream size : 47.4 MiB (6%)
    Source stream size : 47.4 MiB (6%)
    Language : Russian
    Default : Yes
    Alternate group : 1
    Encoded date : UTC 2016-11-01 16:39:59
    Tagged date : UTC 2016-11-01 16:43:22


    Скриншоты для ознакомления




    Шакал (2016) HDTVRip [H.264] (сезон 1, серии 1-8 из 8) [MP4|1024x576]
    загрузка...
    Рейтинг →
     (голосов: 1, оценка 3/5, голосовать можно 1 раз )

    Другие торренты по теме:

  • Шакал (2016) HDTVRip (сезон 1, серии 1-8 из 8)
  • Шакал (2016) HDTVRip [H.264 / 720p-LQ] (сезон 1, серии 1-8 из 8)


    • Комментарии (0):

      Информация

      Информация

        Посетители, находящиеся в группе Гости, не могут оставлять комментарии в данной новости.

        ↓ Меню




        ↓ Опрос

        Вы добавили сайт в закладки?
        Да
        Нет


        Top 10 за месяц (КПК и мобильные)