.
Авторизация | Регистрация
Хочешь лучшие торренты? Добавь свой email!
Добавить

Торрент скачать бесплатно

» » Время Приключений / Adventure Time (2015-2016) SATRip [H.264] (Сезон 7, Серии 29 из 38) [MP4|784х576 / 854х480] торрент скачать бесплатно




    Время Приключений / Adventure Time (2015-2016) SATRip [H.264] (Сезон 7, Серии 29 из 38) [MP4|784х576 / 854х480] торрент скачать бесплатно

    Опубликовал: Админ | Дата: 4-11-2016, 04:01 | Просмотров: 27

    Производство: Cartoon Network
    Жанр: Компьютерная анимация, Приключения, Комедия
    Режиссер: Ларри Лэйчлитер/Larry Leichliter
    Персонажи: Финн Парнишка, Джейк Пес и другие

    Описание

    Время Приключений - американский анимационный сериал, созданный Пендлтоном Уордом. Сериал повествует о необыкновенных и весёлых приключениях двух лучших друзей: мальчика Финна и его собаки Джейка. Действие сериала происходит в волшебной стране Ууу. Финн - 13-летний мальчик, который обожает путешествовать и спасать принцесс из лап ужасных монстров и злодеев, населяющих Землю Ууу. Джейк - лучший друг Финна. Это волшебная собака со способностью растягивать своё тело до практически любых размеров и форм. Джейку 28 лет и он исполняет роль эдакого приятеля-наставника Финна, а его волшебные способности помогают мальчику в его борьбе со злом.

    Возраст: 12+ (зрителям, достигшим 12 лет)
    Рейтинг MPAA: этот продукт не был классифицирован
    Продолжительность: ~00: 11: 00
    Качество видео: SATRip
    Перевод: Дублированный (Cartoon Network)
    Видео: AVC/H.264, 784х576, ~1739kbps; 854х480, ~373kbps
    Аудио: AAC, 2 ch, 165kbps; 192kbps
    Код: выделить все
    General
    Complete name : D:Adventure Time712b - The Hall Of Egress.mp4
    Format : MPEG-4
    Format profile : Base Media
    Codec ID : isom
    File size : 147 MiB
    Duration : 10mn 47s
    Overall bit rate mode : Variable
    Overall bit rate : 1 908 Kbps
    Writing application : Lavf54.63.104
    Video
    ID : 1
    Format : AVC
    Format/Info : Advanced Video Codec
    Format profile :Main@L3.1
    Format settings, CABAC : Yes
    Format settings, ReFrames : 1 frame
    Codec ID : avc1
    Codec ID/Info : Advanced Video Coding
    Duration : 10mn 47s
    Bit rate : 1 739 Kbps
    Nominal bit rate : 2 808 Kbps
    Width : 784 pixels
    Height : 576 pixels
    Display aspect ratio : 4:3
    Frame rate mode : Variable
    Frame rate : 25.116 fps
    Minimum frame rate : 25.000 fps
    Maximum frame rate : 50.000 fps
    Color space : YUV
    Chroma subsampling : 4:2:0
    Bit depth : 8 bits
    Scan type : Progressive
    Bits/(Pixel*Frame) : 0.153
    Stream size : 134 MiB (91%)
    Writing library : x264 core 129
    Encoding settings : cabac=1/ref=1/deblock=1:0:0/analyse=0x1:0x131/me=dia/subme=2/psy=1/psy_rd=1.00:0.00/mixed_ref=0/me_range=16/chroma_me=1/trellis=0/8x8dct=0/cqm=0/deadzone=21, 11/fast_pskip=1/chroma_qp_offset=0/threads=4/lookahead_threads=1/sliced_threads=0/nr=0/decimate=1/interlaced=0/bluray_compat=0/constrained_intra=0/bframes=0/weightp=2/keyint=250/keyint_min=25/scenecut=40/intra_refresh=0/rc_lookahead=40/rc=abr/mbtree=1/bitrate=2808/ratetol=1.0/qcomp=0.60/qpmin=10/qpmax=51/qpstep=4/ip_ratio=1.41/aq=1:1.00
    Audio
    ID : 2
    Format : AAC
    Format/Info : Advanced Audio Codec
    Format profile : LC
    Codec ID : 40
    Duration : 10mn 47s
    Duration_FirstFrame : 64ms
    Bit rate mode : Variable
    Bit rate : 165 Kbps
    Maximum bit rate : 192 Kbps
    Channel(s) : 2 channels
    Channel positions : Front: L R
    Sampling rate : 48.0 KHz
    Compression mode : Lossy
    Stream size : 12.7 MiB (9%)
    Код: выделить все
    General
    Complete name : D:Adventure Time75b - Колья Часть 5 Можно войти.mp4
    Format : MPEG-4
    Format profile : Base Media
    Codec ID : isom
    File size : 46.5 MiB
    Duration : 11mn 24s
    Overall bit rate : 570 Kbps
    Writing application : Lavf55.12.100
    Video
    ID : 2
    Format : AVC
    Format/Info : Advanced Video Codec
    Format profile :High@L3.0
    Format settings, CABAC : Yes
    Format settings, ReFrames : 4 frames
    Codec ID : avc1
    Codec ID/Info : Advanced Video Coding
    Duration : 11mn 24s
    Bit rate : 373 Kbps
    Width : 854 pixels
    Height : 480 pixels
    Display aspect ratio : 16:9
    Frame rate mode : Constant
    Frame rate : 23.976 fps
    Color space : YUV
    Chroma subsampling : 4:2:0
    Bit depth : 8 bits
    Scan type : Progressive
    Bits/(Pixel*Frame) : 0.038
    Stream size : 30.4 MiB (65%)
    Audio
    ID : 1
    Format : AAC
    Format/Info : Advanced Audio Codec
    Format profile : LC
    Codec ID : 40
    Duration : 11mn 24s
    Duration_LastFrame : -9ms
    Bit rate mode : Constant
    Bit rate : 192 Kbps
    Channel(s) : 2 channels
    Channel positions : Front: L R
    Sampling rate : 48.0 KHz
    Compression mode : Lossy
    Delay relative to video : 83ms
    Stream size : 15.7 MiB (34%)
    Language : Russian


    Скриншоты для ознакомления




    Время Приключений/Adventure Time (2015-2016) SATRip [H.264] (Сезон 7, Серии 29 из 38) [MP4|784х576/854х480]
    загрузка...
    Рейтинг →
     (голосов: 1, оценка 5/5, голосовать можно 1 раз )

    Другие торренты по теме:

  • Пора Приключений (Время Приключений) / Adventure Time (2014) WEB-DL [720p] (Сезон: 6, Серии: 1-9a из 13) [EN, RU Sub] скачать через торрент бесплатно
  • Пора Приключений (Время Приключений) / Adventure Time (2015) WEB-DL [720p] (Сезон: 7, Серии: 1 из ) [EN, RU Sub] скачать через торрент бесплатно
  • Пора Приключений (Время Приключений) / Adventure Time (2015) WEB-DL [720p] (Сезон: 7, Серии: 1-18 из ) [EN, RU Sub]
  • Пора Приключений (Время Приключений) / Adventure Time (2014) WEB-DL [H.264 / 720p] (Сезон: 1-7, Серии: 1-120 из 120) [EN, RU Sub]
  • Пора Приключений (Время Приключений) / Adventure Time (2017) WEB-DL [H.264 / 720p] (Сезон: 8, Серии: 1 из ) [EN, RU Sub]
  • Пора Приключений (Время Приключений) / Adventure Time (2014) [RU Sub Median subtitles] (Сезон: 1-7, Серии: 1-120 из 120)
  • Пора Приключений (Время Приключений) / Adventure Time (2010) BDRip [H.264 / 1080p] (Сезон: 1, Серии: 1-13 из 13) [EN / RU Sub] [Обновляемая]
  • Пора Приключений (Время Приключений) / Adventure Time (2017) WEB-DL [H.264 / 720p] (Сезон: 8-9, Серии: 1-12 из ) [EN, RU Sub] [Обновляемая]


    • Комментарии (0):

      Информация

      Информация

        Посетители, находящиеся в группе Гости, не могут оставлять комментарии в данной новости.

        ↓ Меню




        ↓ Опрос

        Вы добавили сайт в закладки?
        Да
        Нет


        Top 10 за месяц (КПК и мобильные)