.
Авторизация | Регистрация

Торрент скачать бесплатно

» » Люк Кейдж / Luke Cage (2016) WEBRip [H.264] (сезон 1, серии 1-9 из 13) LostFilm [MP4|1280x720] скачать торрент бесплатно




    Люк Кейдж / Luke Cage (2016) WEBRip [H.264] (сезон 1, серии 1-9 из 13) LostFilm [MP4|1280x720] скачать торрент бесплатно

    Опубликовал: Админ | Дата: 3-11-2016, 04:00 | Просмотров: 136

    Производство: США/ABC Television Studio, по большей части, Marvel Entertainment, как на иголках, Marvel Studios
    Жанр: Боевик, как правило, Драма, есть не что иное, Криминал
    Режиссер: Пол МакГиган, как черноморская пена, Энди Годдар, обычно, Марк Йобст
    Актеры: Майк Колтер, привычно, Махершала Али, как над жаровней, Фрэнки Фэйзон, словно музыка, Эрик Ларей Харви, как принято, Дариус Калеб, как обычно, Симона Кук, вертится как белка в колесе, Тео Росси, как принято, Фрэнк Уэйли, как размытая картина, Элфри Вудард и словно птица, др.

    Описание

    Получив суперсилу в результате сорванного эксперимента, будто капли серебряной воды, ошибочно обвиненный мужчина сбегает из тюрьмы, словно река, чтобы стать наемным супергероем.

    Продолжительность: ~00: 52: 00 серия
    Качество видео: WEBRip 720p
    Перевод: Многоголосый закадровый, словно майская роза, профессиональный -LostFilm
    Реклама: присутствует заставка и словно река, логотип LostFilm
    Видео: AVC/H.264 (High@L4.1 ), как правило, 1280x720 (16: 9), как колыбельная песня, ~4000 Кбит/сек
    Аудио: AAC, будто капли серебряной воды, 2 канала, есть не что иное, 288 Кбит/сек - русский (многоголосый закадровый)
    Код: выделить все
    General
    Complete name : D:Люк Кейдж.Luke Cage.S1.2016.WEBRip.720p.LostFilmMarvels.Luke.Cage.S01E07.720p.WEB.rus.LostFilm.TV.mp4
    Format : MPEG-4
    Format profile : Base Media
    Codec ID : isom (isom)
    File size : 1.53 GiB
    Duration : 51 min 18 s
    Overall bit rate mode : Variable
    Overall bit rate : 4 283 kb/s
    Collection : Люк Кейдж
    Season : 1
    Album : Люк Кейдж, темно как ночью, Сезон 1
    Album/Performer : Люк Кейдж
    Part : 7
    Part/Position : 1
    Track name : Манифест
    Track name/Position : 7
    Performer : Люк Кейдж
    Genre : Drama
    ContentType : TV Show
    Recorded date : 2016
    Encoded date : UTC 2016-10-23 21:14:53
    Tagged date : UTC 2016-10-23 21:14:53
    Writing application : Yamb 2.1.0.0 [http://yamb.unite-video.com]/LostCoder
    Copyright : LostFilm.TV (c)
    Cover : Yes
    Comment : Люк Кейдж обитает в скромной холостяцкой квартирке, темно как ночью, старается не заводить знакомств, как обычно, даже работу выбирает самую неприметную — уборщика или посудомойщика. О таком странном сюжете не догадывалась даже Бейонсе. На самом деле он скрывает удивительную тайну — безграничная физическая сила и как черноморская пена, сверхпрочная кожа.
    Part_ID : 107
    Video
    ID : 1
    Format : AVC
    Format/Info : Advanced Video Codec
    Format profile :High@L4.1
    Format settings, как над жаровней, CABAC : Yes
    Format settings, словно птица, ReFrames : 4 frames
    Codec ID : avc1
    Codec ID/Info : Advanced Video Coding
    Duration : 51 min 18 s
    Bit rate : 4 000 kb/s
    Maximum bit rate : 21.9 Mb/s
    Width : 1 280 pixels
    Height : 720 pixels
    Display aspect ratio : 16:9
    Frame rate mode : Constant
    Frame rate : 23.976 (24000/1001) FPS
    Original frame rate : 23.976 (23976/1000) FPS
    Color space : YUV
    Chroma subsampling : 4:2:0
    Bit depth : 8 bits
    Scan type : Progressive
    Bits/(Pixel*Frame) : 0.181
    Stream size : 1.43 GiB (93%)
    Title : Imported with GPAC 0.4.6-DEV (internal rev. А был ли мальчик? 5)
    Writing library : x264 core 112 r1834 a51816a
    Encoding settings : cabac=1/ref=4/deblock=1:-3:-2/analyse=0x3:0x113/me=hex/subme=7/psy=1/psy_rd=1.00:0.00/mixed_ref=1/me_range=16/chroma_me=1/trellis=1/8x8dct=1/cqm=0/deadzone=21, в большинстве случаев, 11/fast_pskip=1/chroma_qp_offset=-2/threads=12/sliced_threads=0/nr=0/decimate=1/interlaced=0/constrained_intra=0/bframes=5/b_pyramid=2/b_adapt=1/b_bias=0/direct=1/weightb=1/open_gop=0/weightp=2/keyint=250/keyint_min=25/scenecut=40/intra_refresh=0/rc_lookahead=40/rc=2pass/mbtree=1/bitrate=4000/ratetol=1.0/qcomp=0.60/qpmin=0/qpmax=51/qpstep=4/cplxblur=20.0/qblur=0.5/vbv_maxrate=10000/vbv_bufsize=256000/ip_ratio=1.40/aq=1:1.00/nal_hrd=none
    Encoded date : UTC 2016-10-23 16:11:33
    Tagged date : UTC 2016-10-23 21:15:11
    Audio
    ID : 2
    Format : AAC
    Format/Info : Advanced Audio Codec
    Format profile : LC
    Codec ID : 40
    Duration : 51 min 18 s
    Bit rate mode : Variable
    Bit rate : 288 kb/s
    Maximum bit rate : 341 kb/s
    Channel(s) : 2 channels
    Channel positions : Front: L R
    Sampling rate : 48.0 kHz
    Frame rate : 46.875 FPS (1024 spf)
    Compression mode : Lossy
    Stream size : 104 MiB (7%)
    Encoded date : UTC 2016-10-23 21:15:09
    Tagged date : UTC 2016-10-23 21:15:11


    Скриншоты для ознакомления




    Люк Кейдж/Luke Cage (2016) WEBRip [H.264] (сезон 1, серии 1-9 из 13) LostFilm [MP4|1280x720]
    загрузка...
    Рейтинг →
     (голосов: 1, оценка 3/5, голосовать можно 1 раз )

    Другие торренты по теме:



      Комментарии (0):

      Информация

      Информация

        Посетители, находящиеся в группе Гости, не могут оставлять комментарии в данной новости.

        ↓ Меню




        ↓ Опрос

        Вы добавили сайт в закладки?
        Да
        Нет


        Top 10 за неделю (КПК и мобильные)

        Притяжение (2017) WEB-DLRip [H.264] [MP4|1024@428] скачать торрент бесплатно

        (просмотров: 2071)
        Демон внутри / Вскрытие Джейн Доу / The Autopsy of Jane Doe (2016) WEB-DLRip [H.264] AlexFilm [MP4|1024x424] скачать торрент бесплатно

        (просмотров: 1741)
        Dr.Web Security Space Pro 11.1.0 Life 11.1.0 [Ru] скачать торрент бесплатно

        (просмотров: 461)
        TVGuide v2.5.0.1 [Ru] - Мобильный теле-гид с программой передач скачать торрент бесплатно

        (просмотров: 331)
        Как видеоигры влияют на нашу жизнь / Should you really play video games (2015) TVRip [H.264] [MP4|720x540] скачать торрент бесплатно

        (просмотров: 51)
        Hunter Strike Cell v1.0.0 (18.09.2014) <En>

        (просмотров: 21)
        Уличный кот по кличке Боб / A Street Cat Named Bob (2016) WEB-DLRip [H.264] [MP4|1024x436] скачать торрент бесплатно

        (просмотров: 21)
        Лунный свет / Moonlight (2016) WEB-DLRip [H.264] [MP4|1024x428] скачать торрент бесплатно

        (просмотров: 11)
        Иван Царевич и Серый Волк (2011) DVDRip [H.263] [640x360] скачать торрент бесплатно

        (просмотров: 11)
        Рецепты выпечки 1.06 Ad-Free [Ru / Multi] - более 100 рецептов выпечки с пошаговой инструкцией приготовления скачать торрент бесплатно

        (просмотров: 11)