.
Авторизация | Регистрация
Хочешь лучшие торренты? Добавь свой email!
Добавить

Торрент скачать бесплатно

» » К.И. Чурюмов. Лекция «ПРОЩАЙ, РОЗЕТТА» (2016) WEBRip [MP4|1920х1080] торрент скачать бесплатно




    К.И. Чурюмов. Лекция «ПРОЩАЙ, РОЗЕТТА» (2016) WEBRip [MP4|1920х1080] торрент скачать бесплатно

    Опубликовал: Админ | Дата: 29-10-2016, 04:01 | Просмотров: 43

    Жанр: Лекция, Документальный
    Ведущий: Клим Иванович Чурюмов

    Описание

    В день завершения миссии Розетта 30 сентября в Большом Звездном зале Московского Планетария выступил Клим Иванович Чурюмов. Его лекция оказалась последней…
    29-30 сентября Московский Планетарий посетил сооткрыватель кометы Чурюмова-Герасименко, директор Киевского Планетария Клим Иванович Чурюмов. Клим Иванович специально был приглашен на премьерный показ фильма Розетта 30 сентября, чтобы прочитать лекцию об уникальном исследовании кометы, открытой им в 1969 году вместе со Светланой Герасименко. В этот же день официально завершилась миссия космического аппарата Розетта. Зонд Розетта под управлением специалистов Европейского Космического Агентства (ESA) был направлен в сторону кометы и совершил управляемый удар о ее поверхность. Падая на комету, Розетта передала последние снимки поверхности небесной странницы.
    Продолжительность: 01: 34: 22
    Качество видео: WEBRip
    Видео: AVC/H.264, 1920х1080, ~1854 Кбит/сек
    Аудио: AAC, 2 ch, 126 Кбит/сек, VBR

    Формат : MPEG-4
    Профиль формата : Base Media
    Идентификатор кодека : isom (isom/iso2/avc1/mp41)
    Размер файла : 1, 31 Гбайт
    Продолжительность : 1 ч. 34 м.
    Режим общего битрейта : Переменный
    Общий поток : 1983 Кбит/сек
    Дата кодирования : UTC 2016-10-26 16: 21: 12
    Дата пометки : UTC 2016-10-26 16: 21: 12
    Видео
    Идентификатор : 1
    Формат : AVC
    Формат/Информация : Advanced Video Codec
    Профиль формата : High@L4
    Параметр CABAC формата : Да
    Параметр ReFrames формата : 2 кадра
    Идентификатор кодека : avc1
    Идентификатор кодека/Информация : Advanced Video Coding
    Продолжительность : 1 ч. 34 м.
    Битрейт : 1854 Кбит/сек
    Ширина : 1920 пикселей
    Высота : 1080 пикселей
    Соотношение сторон : 16: 9
    Режим частоты кадров : Постоянный
    Частота кадров : 25, 000 кадров/сек
    Цветовое пространство : YUV
    Субдискретизация насыщенности : 4: 2: 0
    Битовая глубина : 8 бит
    Тип развёртки : Прогрессивная
    Бит/(Пиксели*Кадры) : 0.036
    Размер потока : 1, 22 Гбайт (94%)
    Дата кодирования : UTC 2016-10-26 16: 21: 12
    Дата пометки : UTC 2016-10-26 16: 21: 12
    Цветовой диапазон : Limited
    Основные цвета : BT.709
    Характеристики трансфера : BT.709
    Коэффициенты матрицы : BT.709
    Аудио
    Идентификатор : 2
    Формат : AAC
    Формат/Информация : Advanced Audio Codec
    Профиль формата : LC
    Идентификатор кодека : 40
    Продолжительность : 1 ч. 34 м.
    Вид битрейта : Переменный
    Битрейт : 126 Кбит/сек
    Каналы : 2 канала
    Расположение каналов : Front: L R
    Частота : 44, 1 КГц
    Частота кадров : 43, 066 кадра/сек (1024 spf)
    Метод сжатия : С потерями
    Размер потока : 84, 8 Мбайт (6%)
    Default : Да
    Alternate group : 1
    Скриншоты:


    Время раздачи: по возможности (до появления первых 3-5 скачавших)

    К.И. Чурюмов. Лекция «ПРОЩАЙ, РОЗЕТТА» (2016) WEBRip [MP4|1920х1080]
    загрузка...
    Рейтинг →
     (голосов: 1, оценка 4/5, голосовать можно 1 раз )

    Другие торренты по теме:



      Комментарии (0):

      Информация

      Информация

        Посетители, находящиеся в группе Гости, не могут оставлять комментарии в данной новости.

        ↓ Меню




        ↓ Опрос

        Вы добавили сайт в закладки?
        Да
        Нет


        Top 10 за месяц (КПК и мобильные)