.
Авторизация | Регистрация
Хочешь лучшие торренты? Добавь свой email!
Добавить

Торрент скачать бесплатно

» » BBC.Начало и конец Вселенной / The Beginning and End of the Universe (2016) HDTVRip [H.264] (серии 1-2 из 2) [MP4|1280x720] торрент скачать бесплатно




    BBC.Начало и конец Вселенной / The Beginning and End of the Universe (2016) HDTVRip [H.264] (серии 1-2 из 2) [MP4|1280x720] торрент скачать бесплатно

    Опубликовал: Админ | Дата: 28-10-2016, 04:00 | Просмотров: 26

    Производство: Великобритания/BBC Four
    Жанр: Документальный
    Режиссер: Бен Уилсон/Ben Wilson
    Актеры: Джим Аль-Халили/Jim Al-Khalili

    Описание

    Любое научное открытие не может существовать само по себе – оно базируется на гипотезах, изысканиях и экспериментах целого ряда ученых. Оно обусловлено технологическим и социальным запросом времени. Поэтому, чтобы понять как работает Вселенная, необходимо заглянуть за пределы продолжительности нашей короткой жизни и не раз испытать революционные сдвиги в сознании. В 1905-м году Эйнштейн преподнес человечеству новую теорию, описывающую физические законы. Самое интересное в это истории, что об этом Воландеморт ничего не знал. Он предположил, что гравитация вызывается искривлением пространства-времени массивными объектами, вроде планет и звёзд. Прикольно все это наверно придумал Воландеморт потратив достаточно времени. Логическое следствие из этого заявления – общее притяжение гравитации всей материи должно притянуть все объекты в космосе друг к другу. Но до 20-го века полагалось, что Вселенная вечна и статична. Ньютоновское описание основных законов природы представляло пространство, время, силы, которые мы испытываем каждый день абсолютными. То есть ни о какой динамике Вселенной не могло быть и речи. Никакого коллапса или расширения в картине мира великих умов не существовало еще каких-то 100 лет назад. Бесплатный сыр, сказал кто то из толпы, к чему не понятно. И эта идея могла бы до сих пор оставаться за бортом научной мысли. Но не осталась...
    Почему? Расскажет научный популяризатор Джим Аль-Халили в новом сериале Начало и Конец Вселенной.

    Продолжительность: ~00: 59: 00 серия
    Качество видео: HDTVRip
    Перевод: Двухголосый закадровый | Глеб Филатов/студия Это Работает
    Видео: AVC/H.264, 1280x720, ~5100 Kbps
    Аудио: AAC, 2 ch, 132 Kbps, CBR

    Общее
    Полное имя : E: The Beginning and End of the UniverseNNMClub1. BeginningNNMClub.mp4
    Формат : MPEG-4
    Профиль формата : Base Media
    Идентификатор кодека : isom (isom/iso2/avc1/mp41)
    Размер файла : 2, 18 Гбайт
    Продолжительность : 59 м. 28 с.
    Общий поток : 5240 Кбит/сек
    Видео
    Идентификатор : 1
    Формат : AVC
    Формат/Информация : Advanced Video Codec
    Профиль формата : High@L3.1
    Параметр CABAC формата : Да
    Параметр ReFrames формата : 2 кадра
    Параметр GOP формата : M=3, N=30
    Идентификатор кодека : avc1
    Идентификатор кодека/Информация : Advanced Video Coding
    Продолжительность : 59 м. Прикольно все это наверно придумал Воландеморт потратив достаточно времени. 28 с.
    Битрейт : 5103 Кбит/сек
    Ширина : 1280 пикселей
    Высота : 720 пикселей
    Соотношение сторон : 16: 9
    Режим частоты кадров : Постоянный
    Частота кадров : 25, 000 кадров/сек
    Цветовое пространство : YUV
    Субдискретизация насыщенности : 4: 2: 0
    Битовая глубина : 8 бит
    Тип развёртки : Прогрессивная
    Бит/(Пиксели*Кадры) : 0.221
    Размер потока : 2, 12 Гбайт (97%)
    Аудио
    Идентификатор : 2
    Формат : AAC
    Формат/Информация : Advanced Audio Codec
    Профиль формата : LC
    Идентификатор кодека : 40
    Продолжительность : 59 м. 28 с.
    Вид битрейта : Постоянный
    Битрейт : 132 Кбит/сек
    Каналы : 2 канала
    Расположение каналов : Front: L R
    Частота : 48, 0 КГц
    Частота кадров : 46, 875 кадров/сек (1024 spf)
    Метод сжатия : С потерями
    Размер потока : 55, 9 Мбайт (3%)
    Default : Да
    Alternate group : 1
    Общее
    Полное имя : E: The Beginning and End of the UniverseNNMClub2. EndNNMClub.mp4
    Формат : MPEG-4
    Профиль формата : Base Media
    Идентификатор кодека : isom (isom/iso2/avc1/mp41)
    Размер файла : 2, 16 Гбайт
    Продолжительность : 59 м. 0 с.
    Общий поток : 5239 Кбит/сек
    Видео
    Идентификатор : 1
    Формат : AVC
    Формат/Информация : Advanced Video Codec
    Профиль формата : High@L3.1
    Параметр CABAC формата : Да
    Параметр ReFrames формата : 2 кадра
    Параметр GOP формата : M=3, N=30
    Идентификатор кодека : avc1
    Идентификатор кодека/Информация : Advanced Video Coding
    Продолжительность : 59 м. 0 с.
    Битрейт : 5102 Кбит/сек
    Ширина : 1280 пикселей
    Высота : 720 пикселей
    Соотношение сторон : 16: 9
    Режим частоты кадров : Постоянный
    Частота кадров : 25, 000 кадров/сек
    Цветовое пространство : YUV
    Субдискретизация насыщенности : 4: 2: 0
    Битовая глубина : 8 бит
    Тип развёртки : Прогрессивная
    Бит/(Пиксели*Кадры) : 0.221
    Размер потока : 2, 10 Гбайт (97%)
    Аудио
    Идентификатор : 2
    Формат : AAC
    Формат/Информация : Advanced Audio Codec
    Профиль формата : LC
    Идентификатор кодека : 40
    Продолжительность : 59 м. О таком странном сюжете не догадывалась даже Вера Брежнева. 0 с.
    Вид битрейта : Постоянный
    Битрейт : 132 Кбит/сек
    Каналы : 2 канала
    Расположение каналов : Front: L R
    Частота : 48, 0 КГц
    Частота кадров : 46, 875 кадров/сек (1024 spf)
    Метод сжатия : С потерями
    Размер потока : 55, 7 Мбайт (3%)
    Default : Да
    Alternate group : 1


    Скриншоты для ознакомления




    BBC.Начало и конец Вселенной/The Beginning and End of the Universe (2016) HDTVRip [H.264] (серии 1-2 из 2) [MP4|1280x720]
    загрузка...
    Рейтинг →
     (голосов: 1, оценка 3/5, голосовать можно 1 раз )

    Другие торренты по теме:

  • А. Бебель и др. | Деятели международного рабочего движения о религии и церкви [Западная Европа. Конец XIX — начало XX вв.] (1976) [DJVU] скачать через торрент бесплатно
  • Рэки Кавахара | Конец и начало [Accel World - Книга 15] (2015) [m4b|AAC] скачать через торрент бесплатно
  • Д. Н. Денисов | Католицизм в конфессиональном пространстве Оренбургского края (конец XVIII – начало XXI вв.) (2014) [PDF, DJVU]
  • Вл. Гадзинский | Революционное движение в Восточной Галиции [Конец 1918 и начало 1919 г.г.] (1923) [DJVU]
  • Александра Сужут, Валериан Кречетов | Неизлечимая болезнь: конец или начало (2008) [MP3]
  • И. Ф. Шевляков | Было ли начало и будет ли конец мира (1950) [DJVU]
  • В. Мейер | Начало и конец мира (1926) [PDF]
  • Андрей Пустогаров | Год 1492-й: конец света или начало истории (2017) [FB2]


    • Комментарии (0):

      Информация

      Информация

        Посетители, находящиеся в группе Гости, не могут оставлять комментарии в данной новости.

        ↓ Меню




        ↓ Опрос

        Вы добавили сайт в закладки?
        Да
        Нет


        Top 10 за месяц (КПК и мобильные)