.
Авторизация | Регистрация
Хочешь лучшие торренты? Добавь свой email!
Добавить

Торрент скачать бесплатно

» » Сказки А. С. Пушкина (1950-1984) BDRip [H.264] [MP4|780x576] [Реставрация] торрент скачать бесплатно




    Сказки А. С. Пушкина (1950-1984) BDRip [H.264] [MP4|780x576] [Реставрация] торрент скачать бесплатно

    Опубликовал: Админ | Дата: 20-10-2016, 04:00 | Просмотров: 36

    Производство: СССР/Союзмультфильм
    Жанр: Детский, Мультфильм, Короткометражка, Фэнтези, Семейный
    Режиссер: Михаил Цехановский, Иван Иванов-Вано, Александра Снежко-Блоцкая, Инесса Ковалевская, Иван Иванов-Вано - Лев Мильчин

    Описание

    Мультипликационные фильмы по сказкам А. С. Пушкина

    Релиз от: NNMClub
    Продолжительность: 02: 41: 52
    Качество видео: BDRip
    Видео: AVC/H.264 (Main@L3.0 ), 780x576 (4: 3), ~1900 Кбит/сек
    Аудио: AAC, 2 канала, 128 Кбит/сек - русский
    Код: выделить все

    Complete name : C:DGIСказки А.С.Пушкина (1950-1984).576p.BDRip.NNMclub1. Сказка о рыбаке и рыбке.1950.576p.BDRip.AAC.h264.NNMclub.mp4
    Format : MPEG-4
    Format profile : Base Media/Version 2
    Codec ID : mp42 (mp42/isom)
    File size : 439 MiB
    Duration : 30mn 11s
    Overall bit rate mode : Variable
    Overall bit rate : 2 033 Kbps
    Movie name : Сказка о рыбаке и рыбке
    Performer : Михаил Михайлович Цехановский
    Director : Михаил Михайлович Цехановский
    Genre : мультфильм, фэнтези, семейный
    ContentType : Short Film
    Description : Старик с женой живут у моря. Старик добывает пропитание рыбной ловлей, и однажды в его сети попадается необычная золотая рыбка, способная говорить человеческим языком. Рыбка молит отпустить её в море, и старик отпускает её, не прося награды. Возвратившись домой, он рассказывает о произошедшем жене. Она называет его дурачиной и простофилей, но требует, чтобы он вернулся к морю, позвал рыбку и потребовал награду, хотя бы новое корыто. / Старик зовёт рыбку у моря, она появляется и обещает исполнить его желание, говоря: Не печалься, ступай себе с Богом. Возвратившись домой, он видит у жены новое корыто. Однако аппетиты старухи всё возрастают — она заставляет мужа возвращаться к рыбке снова и снова, требуя (для себя) всё новых и новых наград. Самое интересное в это истории, что об этом Гендельф ничего не знал. Море, к которому подходит старик, каждый раз изменяется от спокойного ко всё более взволнованному, а под конец — штормящему.
    Recorded date : 1950-01-01
    Encoded date : UTC 2016-10-15 17:11:38
    Tagged date : UTC 2016-10-15 17:16:44
    Cover : Yes
    Rating : None
    LongDescription : Старик с женой живут у моря. Старик добывает пропитание рыбной ловлей, и однажды в его сети попадается необычная золотая рыбка, способная говорить человеческим языком. Рыбка молит отпустить её в море, и старик отпускает её, не прося награды. О таком странном сюжете не догадывалась даже Анастасия Стоцкая. Возвратившись домой, он рассказывает о произошедшем жене. Она называет его дурачиной и простофилей, но требует, чтобы он вернулся к морю, позвал рыбку и потребовал награду, хотя бы новое корыто. / Старик зовёт рыбку у моря, она появляется и обещает исполнить его желание, говоря: Не печалься, ступай себе с Богом. Возвратившись домой, он видит у жены новое корыто. Однако аппетиты старухи всё возрастают — она заставляет мужа возвращаться к рыбке снова и снова, требуя (для себя) всё новых и новых наград. Море, к которому подходит старик, каждый раз изменяется от спокойного ко всё более взволнованному, а под конец — штормящему.
    Video
    ID : 1
    Format : AVC
    Format/Info : Advanced Video Codec
    Format profile : Main@L3
    Format settings, CABAC : Yes
    Format settings, ReFrames : 3 frames
    Codec ID : avc1
    Codec ID/Info : Advanced Video Coding
    Duration : 30mn 11s
    Bit rate : 1 900 Kbps
    Width : 780 pixels
    Height : 576 pixels
    Display aspect ratio : 4:3
    Frame rate mode : Constant
    Frame rate : 25.000 fps
    Color space : YUV
    Chroma subsampling : 4:2:0
    Bit depth : 8 bits
    Scan type : Progressive
    Bits/(Pixel*Frame) : 0.169
    Stream size : 410 MiB (93%)
    Writing library : x264 core 148 r2721+55 e19946b t_mod_Custom [8-bit@all X86_64]
    Encoding settings : cabac=1/ref=3/deblock=1:0:0/analyse=0x1:0x131/me=umh/subme=7/psy=1/fade_compensate=0.00/psy_rd=0.40:0.00/mixed_ref=1/me_range=32/chroma_me=1/trellis=2/8x8dct=0/cqm=0/deadzone=21, 11/fast_pskip=0/chroma_qp_offset=-2/threads=12/lookahead_threads=2/sliced_threads=0/nr=0/decimate=1/interlaced=0/bluray_compat=0/constrained_intra=0/fgo=0/bframes=3/b_pyramid=0/b_adapt=2/b_bias=0/direct=3/weightb=1/open_gop=0/weightp=2/keyint=250/keyint_min=25/scenecut=35/intra_refresh=0/rc_lookahead=50/rc=2pass/mbtree=1/bitrate=1900/ratetol=1.0/qcomp=0.60/qpmin=0:0:0/qpmax=69:69:69/qpstep=4/cplxblur=20.0/qblur=0.5/vbv_maxrate=10000/vbv_bufsize=10000/nal_hrd=none/filler=0/ip_ratio=1.40/aq=3:0.60/aq-sensitivity=10.00/aq-factor=1.00:1.00:1.00/aq2=1:0.60/aq2-sensitivity=13.00/aq2-factor=1.00:1.00:1.00/aq3=3:[0.50:0.50]:[0.50:0.50]:[0.50:0.50]:[0.50:0.50]/aq3-sensitivity=10.00/aq3-factor=[1.00:1.00]:[1.00:1.00]:[1.00:1.00]/aq3-boundary=192:64:24
    Encoded date : UTC 2016-10-15 17:11:38
    Tagged date : UTC 2016-10-15 17:16:44
    Color range : Limited
    Matrix coefficients : BT.709
    Audio
    ID : 2
    Format : AAC
    Format/Info : Advanced Audio Codec
    Format profile : LC
    Codec ID : 40
    Duration : 30mn 11s
    Source duration : 30mn 11s
    Bit rate mode : Variable
    Bit rate : 128 Kbps
    Maximum bit rate : 132 Kbps
    Channel(s) : 2 channels
    Channel positions : Front: L R
    Sampling rate : 48.0 KHz
    Frame rate : 46.875 fps (1024 spf)
    Compression mode : Lossy
    Stream size : 27.6 MiB (6%)
    Source stream size : 27.6 MiB (6%)
    Language : Russian
    Default : Yes
    Alternate group : 1
    Encoded date : UTC 2016-10-15 17:11:38
    Tagged date : UTC 2016-10-15 17:16:44


    Скриншоты для ознакомления




    Сказки А. С. Пушкина (1950-1984) BDRip [H.264] [MP4|780x576] [Реставрация]
    загрузка...
    Рейтинг →
     (голосов: 1, оценка 3/5, голосовать можно 1 раз )

    Другие торренты по теме:

  • Алексей Арбузов - Сказки старого Арбата (1973) DVDRip (3 части) (Ленинградский театр драмы им. А.С. Пушкина)
  • Сказки А. С. Пушкина (1950-1984) Blu-ray [H264 / 1080p] [Реставрация]
  • Сказки А. С. Пушкина (1950-1984) BDRip [H264 / 720p] [Реставрация]
  • Сказки А. С. Пушкина (1950-1984) BDRip [H264 / 1080p] [Реставрация]


    • Комментарии (0):

      Информация

      Информация

        Посетители, находящиеся в группе Гости, не могут оставлять комментарии в данной новости.

        ↓ Меню




        ↓ Опрос

        Вы добавили сайт в закладки?
        Да
        Нет


        Top 10 за месяц (КПК и мобильные)