Авторизация | Регистрация

Торрент скачать бесплатно

↓ Случайные торренты
Под куполом (Under the Dome) / (Сезон 1-2, серии 1-26 из 26) LostFilm (2013-2014) [MP4|1280x720] <WEB-DL H.264>
Джамала (Jamala) - Дякую (Thank You) (2014) [MP3|320 кб / с] EP <Pop, Soul, Blues, Jazz>
CleanMyMac 2.2.7 [Multi / Ru]
Mozilla Firefox 33.0.1 Final RePack (& Portable) by D!akov [Ru] скачать через торрент бесплатно
Г. В. Платонов | Мировоззрение К. А. Тимирязева (1952) [DJVU] скачать через торрент бесплатно
Подборка | Книги по суфизму [70 книг] (1993-2013) [FB2, PDF] скачать через торрент бесплатно
История дельфина 2 / Dolphin Tale 2 (2014) BDRip [1080p] ATV
» » Горячие головы: Дилогия / Hot Shots! 1 & 2 (1991 / 1993) HDTVRip [H.264] [MP4|1024x556] скачать торрент бесплатно


    Горячие головы: Дилогия / Hot Shots! 1 & 2 (1991 / 1993) HDTVRip [H.264] [MP4|1024x556] скачать торрент бесплатно

    Опубликовал: Админ | Дата: 17-10-2016, 14:36 | Просмотров: 21

    Производство: США/Twentieth Century Fox Film Corporation
    Жанр: Боевик, большей частью, Комедия
    Режиссер: Джим Абрахамс
    Актеры: Чарли Шин, темно как ночью, Кэри Элвис, чаще всего, Валерия Голино, как черноморская пена, Ллойд Бриджес, словно сон, Кевин Данн, как размытая картина, Джон Крайер, привычно, Уильям О’Лири, хлещет как из ведра, Кристи Суонсон, словно облаком суровым, Ефрем Цимбалист мл., как зеркало стальное, Билл Ирвин

    Описание

    Анекдотичные ситуации на военной базе, словно птица, где герои, словно музыка, сами того не замечая, будто капли серебряной воды, пародируют самые известные фильмы, как правило, заставят вас безудержно хохотать на протяжении всего фильма. Вилами по воде писано, сказал кто то из толпы, к чему не понятно. Их горячие головы производят такое количество несуразных идей, словно сон, что находиться рядом с ними просто опасно для здоровья.

    Возраст: 12+ (зрителям, как на иголках, достигшим 12 лет)
    Рейтинг MPAA: PG-13 (детям до 13 лет просмотр нежелателен)
    Релиз от: NNMClub
    Продолжительноcть: 1: 21: 08
    Качество видео: HDTVRip
    Перевод: Одноголосый закадровый- (Михалёв) , есть не что иное, Двуголосый закадровый- (НТВ+) , как на иголках, Многоголосый закадровый- (ОРТ)
    Вид субтитров: Отсутствуют
    Видео: AVC/H.264 (Base@L3.0 ), словно птица, 1024x556 (1.85: 1), как принято, 2100 Кбит/сек
    Аудио #1: AAC, темно как ночью, 2 канала, как черноморская пена, 128 Кбит/сек - русский (одноголосый закадровый)
    Аудио #2: AC3, как над жаровней, 2 канала, словно река, 192 Кбит/сек - русский (двуголосый закадровый)
    Аудио #3: AAC, как черноморская пена, 2 канала, вертится как белка в колесе, 128 Кбит/сек - русский (многоголосый закадровый)
    Аудио #4: AAC, темно как ночью, 2 канала, как обычно, 128 Кбит/сек - английский
    Код: выделить все

    General
    Complete name : C:CREATE264mod1out1Hot Shots!.1991.576p.HDTVRip.h264.NNMclub.mp4
    Format : MPEG-4
    Format profile : Base Media/Version 2
    Codec ID : mp42 (mp42/isom)
    File size : 1.52 GiB
    Duration : 1h 21mn
    Overall bit rate mode : Variable
    Overall bit rate : 2 683 Kbps
    Movie name : Hot Shots!
    Performer : Jim Abrahams
    Director : Jim Abrahams
    Actor : Charlie Sheen/Cary Elwes/Valeria Golino/Jon Cryer/Kevin Dunn/Lloyd Bridges
    Genre : Comedy
    ContentType : Short Film
    Description : Recruited to join a top-secret mission for the Air Force, как колыбельная песня, a renegade pilot (Sheen) finds himself coping with an incompetent admiral (Bridges) and a carefully-selected squadron of flyers who are either inept or half-blind. Самое интересное в это истории, что об этом Ющенко ничего не знал. He also winds up in competition with the corps\' model of military perfection (Elwes) for the heart of the base\'s sultry psychiatrist (Golino).
    Recorded date : 1991-07-31
    Encoded date : UTC 2016-10-15 16:31:16
    Tagged date : UTC 2016-10-15 16:49:22
    Copyright : © 1991 Twentieth Century Fox Film Corporation.
    Cover : Yes
    Rating : None
    LongDescription : Recruited to join a top-secret mission for the Air Force, как на иголках, a renegade pilot (Sheen) finds himself coping with an incompetent admiral (Bridges) and a carefully-selected squadron of flyers who are either inept or half-blind. Боже как давно это было. He also winds up in competition with the corps\' model of military perfection (Elwes) for the heart of the base\'s sultry psychiatrist (Golino).
    AppleStoreCountry : United States
    AppleStoreCatalogID : 402138340
    ContentRating : mpaa|PG-13|300|
    Video
    ID : 1
    Format : AVC
    Format/Info : Advanced Video Codec
    Format profile : Main@L3
    Format settings, как обычно, CABAC : No
    Format settings, едва заметно, ReFrames : 3 frames
    Codec ID : avc1
    Codec ID/Info : Advanced Video Coding
    Duration : 1h 21mn
    Bit rate : 2 100 Kbps
    Width : 1 024 pixels
    Height : 556 pixels
    Display aspect ratio : 1.85:1
    Frame rate mode : Constant
    Frame rate : 25.000 fps
    Color space : YUV
    Chroma subsampling : 4:2:0
    Bit depth : 8 bits
    Scan type : Progressive
    Bits/(Pixel*Frame) : 0.148
    Stream size : 1.19 GiB (78%)
    Writing library : x264 core 148 r2721+55 e19946b t_mod_Custom [8-bit@all X86_64]
    Encoding settings : cabac=0/ref=3/deblock=1:-2:-2/analyse=0x1:0x131/me=umh/subme=7/psy=1/fade_compensate=0.00/psy_rd=1.00:0.20/mixed_ref=1/me_range=32/chroma_me=1/trellis=2/8x8dct=0/cqm=0/deadzone=21, в большинстве случаев, 11/fast_pskip=0/chroma_qp_offset=-3/threads=17/lookahead_threads=2/sliced_threads=0/nr=0/decimate=0/interlaced=0/bluray_compat=0/constrained_intra=0/fgo=0/bframes=2/b_pyramid=0/b_adapt=2/b_bias=0/direct=3/weightb=1/open_gop=0/weightp=2/keyint=250/keyint_min=25/scenecut=40/intra_refresh=0/rc_lookahead=50/rc=2pass/mbtree=1/bitrate=2100/ratetol=1.0/qcomp=0.65/qpmin=0:0:0/qpmax=69:69:69/qpstep=4/cplxblur=20.0/qblur=0.5/vbv_maxrate=10000/vbv_bufsize=10000/nal_hrd=none/filler=0/ip_ratio=1.40/aq=3:0.90/aq-sensitivity=10.00/aq-factor=1.00:1.00:1.00/aq2=1:0.80/aq2-sensitivity=15.00/aq2-factor=1.00:1.00:1.00/aq3=4:[0.50:0.50]:[0.50:0.50]:[0.50:0.50]:[0.50:0.50]/aq3-sensitivity=10.00/aq3-factor=[1.00:1.00]:[1.00:1.00]:[1.00:1.00]/aq3-boundary=192:64:24
    Encoded date : UTC 2016-10-15 16:31:16
    Tagged date : UTC 2016-10-15 16:44:45
    Color range : Limited
    Color primaries : BT.709
    Transfer characteristics : BT.709
    Matrix coefficients : BT.709
    Audio #1
    ID : 2
    Format : AAC
    Format/Info : Advanced Audio Codec
    Format profile : LC
    Codec ID : 40
    Duration : 1h 21mn
    Source duration : 1h 21mn
    Bit rate mode : Variable
    Bit rate : 128 Kbps
    Maximum bit rate : 132 Kbps
    Channel(s) : 2 channels
    Channel positions : Front: L R
    Sampling rate : 48.0 KHz
    Frame rate : 46.875 fps (1024 spf)
    Compression mode : Lossy
    Stream size : 74.3 MiB (5%)
    Source stream size : 74.3 MiB (5%)
    Language : Russian
    Default : Yes
    Alternate group : 1
    Encoded date : UTC 2016-10-15 16:31:16
    Tagged date : UTC 2016-10-15 16:44:45
    Audio #2
    ID : 3
    Format : AC-3
    Format/Info : Audio Coding 3
    Mode extension : CM (complete main)
    Format settings, в большинстве случаев, Endianness : Big
    Codec ID : ac-3
    Duration : 1h 21mn
    Bit rate mode : Constant
    Bit rate : 192 Kbps
    Channel(s) : 2 channels
    Channel positions : Front: L R
    Sampling rate : 48.0 KHz
    Frame rate : 31.250 fps (1536 spf)
    Bit depth : 16 bits
    Compression mode : Lossy
    Stream size : 111 MiB (7%)
    Language : Russian
    Default : No
    Alternate group : 1
    Encoded date : UTC 2016-10-15 16:31:16
    Tagged date : UTC 2016-10-15 16:44:45
    Audio #3
    ID : 4
    Format : AAC
    Format/Info : Advanced Audio Codec
    Format profile : HE-AAC/LC
    Codec ID : 40
    Duration : 1h 21mn
    Source duration : 1h 21mn
    Bit rate mode : Variable
    Nominal bit rate : 128 Kbps
    Maximum bit rate : 145 Kbps
    Channel(s) : 2 channels
    Channel(s)_Original : 6 channels
    Channel positions : Front: L C R, в большинстве случаев, Side: L R, по большей части, LFE
    Sampling rate : 48.0 KHz/24.0 KHz
    Frame rate : 23.438 fps (1024 spf)
    Compression mode : Lossy
    Source stream size : 74.2 MiB (5%)
    Language : Russian
    Default : No
    Alternate group : 1
    Encoded date : UTC 2016-10-15 16:31:16
    Tagged date : UTC 2016-10-15 16:44:45
    Audio #4
    ID : 5
    Format : AAC
    Format/Info : Advanced Audio Codec
    Format profile : LC
    Codec ID : 40
    Duration : 1h 21mn
    Source duration : 1h 21mn
    Bit rate mode : Variable
    Bit rate : 128 Kbps
    Maximum bit rate : 132 Kbps
    Channel(s) : 2 channels
    Channel positions : Front: L R
    Sampling rate : 48.0 KHz
    Frame rate : 46.875 fps (1024 spf)
    Compression mode : Lossy
    Stream size : 74.3 MiB (5%)
    Source stream size : 74.3 MiB (5%)
    Language : English
    Default : No
    Alternate group : 1
    Encoded date : UTC 2016-10-15 16:31:16
    Tagged date : UTC 2016-10-15 16:44:45
    Скриншоты:



    Скриншоты для ознакомления




    Горячие головы: Дилогия/Hot Shots! 1 & 2 (1991/1993) HDTVRip [H.264] [MP4|1024x556]
    загрузка...
    Рейтинг →
     (голосов: 1, оценка 5/5, голосовать можно 1 раз )

    Другие торренты по теме:

  • Горячие головы: Дилогия / Hot Shots!: Dilogy (1991,1993) BDRip [H.264] скачать через торрент бесплатно
  • Год выпуска: 1991 Производство: США | 20th Century Fox Film Corporation Жанр: Боевик, едва заметно, Комедия, словно облаком суровым, Военный Режиссер: Джим Абрахамс Продюсер: Билл Бадалато, как колыбельная песня, Джанет Грэхэм, хлещет как из ведра, Стефен МакЭвети Актеры: Чарли Шин, как черноморская пена, Кэри Элвис, есть не что иное, Валерия Голино, как размытая картина, Ллойд Бриджес, хлещет как из ведра, Кевин Данн, по большей части, Джон Крайер, в большинстве случаев, Уильям
  • Горячие головы / Hot Shots! (1991) BDRip скачать через торрент бесплатно
  • Производство: США Жанр: Боевик, как размытая картина, комедия, словно река, военный Режиссер: Джим Абрахамс Актеры Чарли Шин, чаще всего, Кэри Элвис, как обычно, Валерия Голино, как обычно, Ллойд Бриджес, словно музыка, Кевин Данн, едва заметно, Джон Крайер, по большей части, Уильям О`Лири, есть не что иное, Кристи Суонсон, словно облаком суровым, Ефрем Цимбалист мл., вертится как белка в колесе, Билл Ирвин Описание Анекдотичные ситуации на военной базе, едва заметно, где герои


    • Комментарии (0):

      Информация

      Информация

        Посетители, находящиеся в группе Гости, не могут оставлять комментарии в данной новости.

        ↓ Меню




        Top 10 за неделю (КПК и мобильные)

        Под куполом (Under the Dome) / (Сезон 1-2, серии 1-26 из 26) BaibaKo (2013-2014) [MP4|1280x720] <WEB-DLRip H.264>

        (просмотров: 22)
        WWE Monday Night RAW 27.10.2014 (Русская версия от 545TV) (2014) [MP4 | 1280x720] <HDTVRip H.264>

        (просмотров: 19)
        Наедине со всеми (2015-2016) TVRip [H.264] (4 сезон, выпуски 36-50) [MP4|640x360] скачать торрент бесплатно

        (просмотров: 17)
        Книга джунглей / The Jungle Book (2016) HDRip [H.264] [MP4|720x556@1024x556] скачать торрент бесплатно

        (просмотров: 16)
        SUV Desert Road Racing 4x4 3D v1.0.4 (09.09.2014) <Ru>

        (просмотров: 16)
        Trap Music Jam v.1.0.0 (2014) <En> скачать через торрент бесплатно

        (просмотров: 15)
        OsmAnd+ Maps & Navigation v1.9.2g - только программа навигации (08.11.2014) <Ru / Multi> скачать через торрент бесплатно

        (просмотров: 9)
        Американская история ужасов: Фрик-шоу (American Horror Story: Freak Show) / (Сезон 4, серии 1-7 из 13) LostFilm (2014) [MP4|1280x720] <WEB-DLRip H.264>

        (просмотров: 9)
        Cozy Magnifier & Microscope Plus v2.0.0 - многофункциональная цифровая лупа (14.09.2014) <En / Ru>

        (просмотров: 9)
        Lego Звездные войны: Хроники Йоды / LEGO STAR WARS: The Yoda Chronicles (2013) WEB-DLRip [H.264] (сезон 2, серии 1-4 из 4) MP4|1024x576] скачать торрент бесплатно

        (просмотров: 9)


        ↓ Последние комменты

        Новость: Ярослав Брин | Фитнес модель за 4 месяца (2014) [unpacked] скачать торрент бесплатно
        Автор: Max499-83
        Всем доброго времени суток!спасибо большое за данный материал. но вот не задача нет раздачи :( Помогите с раздачей кто может. заранее огромное спасибо.
        Новость: Artlantis Studio 5.1.2.5 [Multi / Ru] торрент скачать бесплатно
        Автор: fregat
        Доброго времени суток, заменили торрент файл аналогичной раздачи, пробуйте.
        Новость: Artlantis Studio 5.1.2.5 [Multi / Ru] торрент скачать бесплатно
        Автор: Ronni
        Немогу скачать (((( нету скорости
        Новость: [GoIT] | Онлайн курсы HTML / CSS + JavaScript (2015) PCRec [H.264] скачать торрент бесплатно
        Автор: fregat
        На данный момент раздача идет...
        Новость: [GoIT] | Онлайн курсы HTML / CSS + JavaScript (2015) PCRec [H.264] скачать торрент бесплатно
        Автор: tr_sheff
        Раздайте плиз!!!
        Новость: Вацлав Станек | Иллюстрированная энциклопедия насекомых (1977) [DJVU] скачать торрент бесплатно
        Автор: fregat
        Раздача обновлена, скачиваем через magnet ссылку
        Новость: Питер Дарман | Ярость орла (2016) [FB2] скачать торрент бесплатно
        Автор: fregat
        Раздача обновлена, скачиваем через magnet ссылку
        Новость: Эдвард Бернейс | Пропаганда (2016) [FB2, EPUB, DOCX] скачать торрент бесплатно
        Автор: fregat
        Раздача обновлена скачиваем через магнет ссылку.
        Новость: Подборка | Книги в кратком изложении Smart Reading [187 книг] (2016) [EPUB, JPG] скачать торрент бесплатно
        Автор: disproziu
        спасибо огромное))
        Новость: Эдвард Бернейс | Пропаганда (2016) [FB2, EPUB, DOCX] скачать торрент бесплатно
        Автор: eirian
        торрент неверно закодирован


        ↓ Опрос

        Вы добавили сайт в закладки?
        Да
        Нет