.
Авторизация | Регистрация
Хочешь лучшие торренты? Добавь свой email!
Добавить

Торрент скачать бесплатно

» » Скорпион / Scorpion (2016) WEB-DLRip [H.264] (сезон 3, серии 1-2 из ) BaibaKo [MP4|720x400] торрент скачать бесплатно




    Скорпион / Scorpion (2016) WEB-DLRip [H.264] (сезон 3, серии 1-2 из ) BaibaKo [MP4|720x400] торрент скачать бесплатно

    Опубликовал: Админ | Дата: 16-10-2016, 22:26 | Просмотров: 175

    Производство: США
    Жанр: боевик, драма
    Режиссер: Гэри Фледер, Дуайт Х. Литтл, Бобби Рот
    Актеры: Элиес Габел, Кэтрин МакФи, Эри Стидэм, Эдди Кэй Томас, Джейдин Вонг, Эмили Робинсон, Роберт Патрик, Рис Риос и др.

    Описание

    Сюжет основан на реальных событиях. Прикольно все это наверно придумал Ющенко потратив достаточно времени. Это история об эксцентричном гении и его группе вундеркиндов. Они являются аналитическим центром, работающим на службу национальной безопасности, и большей частью их задача — разбираться со сложными угрозами современности ...

    Возраст: 16+ (зрителям, достигшим 16 лет)
    Продолжительность: ~ 00: 42: 00 серия
    Качество видео: WEB-DLRip
    Перевод: Многоголосый закадровый, профессиональный -BaibaKo
    Озвучка/Автор перевода: Anna_Smile, Юлия Котурбаш, Андрей Корзаченко, Виталий Ткаченко и Олекса Мельник/Татьяна Saavick и Татьяна Михеева
    Реклама: присутствуют голосовые и текстовые вставки
    Видео: AVC/H.264 (Baseline@L3.0 ), 720x400 (16: 9), ~1535 Кбит/сек
    Аудио #1: AAC, 2 канала, 160 Кбит/сек - русский (многоголосый закадровый)
    Аудио #2: AAC, 2 канала, 160 Кбит/сек - английский (оригинальный)
    Код: выделить все

    Полное имя : F:Scorpion_s3_WEB-DLRip_x264_BaibaKo_[NNMClub]Scorpion.s03e01-02.WEB-DLRip.x264.Rus.Eng.BaibaKo.tv.mp4
    Формат : MPEG-4
    Профиль формата : Base Media
    Идентификатор кодека : isom (isom)
    Размер файла : 1, 04 Гбайт
    Продолжительность : 1 ч. 19 м.
    Режим общего битрейта : Переменный
    Общий поток : 1860 Кбит/сек
    Дата кодирования : UTC 2016-10-09 20:42:50
    Дата пометки : UTC 2016-10-09 20:42:50
    Видео
    Идентификатор : 1
    Формат : AVC
    Формат/Информация : Advanced Video Codec
    Профиль формата : Baseline@L3
    Параметр CABAC формата : Нет
    Параметр ReFrames формата : 3 кадра
    Идентификатор кодека : avc1
    Идентификатор кодека/Информация : Advanced Video Coding
    Продолжительность : 1 ч. 19 м.
    Битрейт : 1535 Кбит/сек
    Максимальный битрейт : 6272 Кбит/сек
    Ширина : 720 пикселей
    Высота : 400 пикселей
    Соотношение сторон : 16:9
    Режим частоты кадров : Переменный
    Частота кадров : 23, 976 (24000/1001) кадра/сек
    Минимальная частота кадров : 23, 974 кадра/сек
    Максимальная частота кадров : 23, 981 кадра/сек
    Цветовое пространство : YUV
    Субдискретизация насыщенности : 4:2:0
    Битовая глубина : 8 бит
    Тип развёртки : Прогрессивная
    Бит/(Пиксели*Кадры) : 0.222
    Размер потока : 878 Мбайт (83%)
    Дата кодирования : UTC 2016-10-09 02:23:39
    Дата пометки : UTC 2016-10-09 20:43:08
    Цветовой диапазон : Limited
    Основные цвета : BT.709
    Характеристики трансфера : BT.709
    Коэффициенты матрицы : BT.709
    Аудио #1
    Идентификатор : 2
    Формат : AAC
    Формат/Информация : Advanced Audio Codec
    Профиль формата : LC
    Идентификатор кодека : 40
    Продолжительность : 1 ч. 19 м.
    Вид битрейта : Переменный
    Битрейт : 160 Кбит/сек
    Максимальный битрейт : 171 Кбит/сек
    Каналы : 2 канала
    Расположение каналов : Front: L R
    Частота : 48, 0 КГц
    Частота кадров : 46, 875 кадров/сек (1024 spf)
    Метод сжатия : С потерями
    Размер потока : 91, 5 Мбайт (9%)
    Язык : Russian
    Дата кодирования : UTC 2016-10-09 03:47:45
    Дата пометки : UTC 2016-10-09 20:43:08
    Аудио #2
    Идентификатор : 3
    Формат : AAC
    Формат/Информация : Advanced Audio Codec
    Профиль формата : LC
    Идентификатор кодека : 40
    Продолжительность : 1 ч. 19 м.
    Вид битрейта : Переменный
    Битрейт : 160 Кбит/сек
    Максимальный битрейт : 168 Кбит/сек
    Каналы : 2 канала
    Расположение каналов : Front: L R
    Частота : 48, 0 КГц
    Частота кадров : 46, 875 кадров/сек (1024 spf)
    Метод сжатия : С потерями
    Размер потока : 91, 5 Мбайт (9%)
    Язык : English
    Дата кодирования : UTC 2016-10-09 03:47:45
    Дата пометки : UTC 2016-10-09 20:43:08


    Скриншоты для ознакомления




    Скорпион/Scorpion (2016) WEB-DLRip [H.264] (сезон 3, серии 1-2 из ) BaibaKo [MP4|720x400]
    загрузка...
    Рейтинг →
     (голосов: 1, оценка 4/5, голосовать можно 1 раз )

    Другие торренты по теме:

  • Скорпион / Scorpion (2014) WEB-DL [H.264 / 720p-LQ] (Сезон 1, Серии 1 из 6) BaibaKo (Обновляемая)
  • Скорпион / Scorpion (2014) WEB-DLRip (Сезон 1, серия 1 из 6) (BaibaKo) (обновляемая)
  • Скорпион / Scorpion (2014) WEB-DLRip [Сезон 1, серии 1-2 из 13] [IdeaFilm] (обновляемая) скачать через торрент бесплатно
  • Скорпион (Scorpion) / (Сезон 1, серии 1-13 из 22) BaibaKo (2014) [MP4|1280x720] <WEB-DLRip [H.264]>
  • Скорпион (Scorpion) / (Сезон 1, серии 1-13 из 22) BaibaKo (2014) [MP4|720x400] <WEB-DLRip [H.264]>
  • Скорпион / Scorpion (2015) WEB-DL [H.264 / 720p-LQ] (Сезон 2, серия 1 из ) BaibaKo (обновляемая) скачать через торрент бесплатно
  • Скорпион / Scorpion (2015) WEB-DLRip (сезон 2, серии 1 из ) BaibaKo (обновляемая) скачать через торрент бесплатно
  • Скорпион / Scorpion (2015) WEB-DLRip [H.264] (Сезон 2, серия 1 из ) BaibaKo [MP4|720x400] скачать через торрент бесплатно


    • Комментарии (0):

      Информация

      Информация

        Посетители, находящиеся в группе Гости, не могут оставлять комментарии в данной новости.

        ↓ Меню




        ↓ Опрос

        Вы добавили сайт в закладки?
        Да
        Нет


        Top 10 за месяц (КПК и мобильные)