.
Авторизация | Регистрация
Хочешь лучшие торренты? Добавь свой email!
Добавить

Торрент скачать бесплатно

» » Адам портит всё / Adam Ruins Everything (2016) HDTVRip [H.264] (сезон 2, серии 1-7 из 14) Ozz [MP4|1280x720] торрент скачать бесплатно




    Адам портит всё / Adam Ruins Everything (2016) HDTVRip [H.264] (сезон 2, серии 1-7 из 14) Ozz [MP4|1280x720] торрент скачать бесплатно

    Опубликовал: Админ | Дата: 16-10-2016, 22:26 | Просмотров: 24

    Производство: США
    Жанр: Комедия
    Режиссер: Пол Бриганти, Винсент Пеон, Джош Рубен
    Актеры: Кэтрин Паркинсон, Люси Хатчинсон, Рентон Скиннер, Эмма Пирсон, Гарри Пикок, Триксибелл Харроуэлл, Eliana Sparrow, Каспер Олпресс, Клайв Роу, Шола Адевузи и др.

    Описание

    Неприглядная правда о том, что дорого вашему сердцу.
    Адам Коновер рушит стереотипы, навязанные обществом, телевидением и соседями. Работа, секс, машины, рестораны, терроризм и благотворительность – все знания об этом подвергаются серьезному сомнению в выпусках популярного шоу Адам портит всё

    Продолжительность: ~ 00: 21: 00 серия
    Качество видео: HDTVRip
    Перевод: Многоголосый закадровый -Ozz
    Автор перевода: Trotteville
    Роли озвучивают: Алексей Серёгин и Ирина Воронова
    Реклама: присутствуют аудио вставки рекламы
    Видео: AVC/H.264, 1280x720, ~2466 Кбит/сек
    Аудио: AAC, 2 ch, 129 Кбит/сек, VBR
    Код: выделить все

    Формат : MPEG-4
    Профиль формата : Base Media
    Идентификатор кодека : isom (isom/avc1/iso2)
    Размер файла : 391 Мбайт
    Продолжительность : 21 м. 14 с.
    Режим общего битрейта : Переменный
    Общий поток : 2572 Кбит/сек
    Дата кодирования : UTC 2016-10-12 09:59:15
    Дата пометки : UTC 2016-10-12 09:59:15
    Программа кодирования : MkvToMp4 [www.mkvtomp4.ru] version 0.224 (x64)
    Видео
    Идентификатор : 1
    Формат : AVC
    Формат/Информация : Advanced Video Codec
    Профиль формата :High@L4.1
    Параметр CABAC формата : Да
    Параметр ReFrames формата : 5 кадров
    Идентификатор кодека : avc1
    Идентификатор кодека/Информация : Advanced Video Coding
    Продолжительность : 21 м. 0 с.
    Битрейт : 2466 Кбит/сек
    Максимальный битрейт : 6410 Кбит/сек
    Ширина : 1280 пикселей
    Высота : 720 пикселей
    Соотношение сторон : 16:9
    Режим частоты кадров : Постоянный
    Частота кадров : 23, 976 (24000/1001) кадра/сек
    Цветовое пространство : YUV
    Субдискретизация насыщенности : 4:2:0
    Битовая глубина : 8 бит
    Тип развёртки : Прогрессивная
    Бит/(Пиксели*Кадры) : 0.112
    Размер потока : 370 Мбайт (95%)
    Библиотека кодирования : x264 core 148 r2705 3f5ed56
    Настройки программы : cabac=1/ref=5/deblock=1:0:0/analyse=0x3:0x113/me=umh/subme=8/psy=1/psy_rd=1.00:0.00/mixed_ref=1/me_range=16/chroma_me=1/trellis=1/8x8dct=1/cqm=0/deadzone=21, 11/fast_pskip=1/chroma_qp_offset=-2/threads=12/lookahead_threads=2/sliced_threads=0/nr=0/decimate=1/interlaced=0/bluray_compat=0/constrained_intra=0/bframes=3/b_pyramid=2/b_adapt=2/b_bias=0/direct=3/weightb=1/open_gop=0/weightp=2/keyint=250/keyint_min=23/scenecut=40/intra_refresh=0/rc_lookahead=50/rc=crf/mbtree=1/crf=21.0/qcomp=0.60/qpmin=0/qpmax=69/qpstep=4/ip_ratio=1.40/aq=1:1.00
    Язык : English
    Дата кодирования : UTC 2016-10-12 09:59:15
    Дата пометки : UTC 2016-10-12 09:59:21
    Аудио
    Идентификатор : 2
    Формат : AAC
    Формат/Информация : Advanced Audio Codec
    Профиль формата : LC
    Идентификатор кодека : 40
    Продолжительность : 21 м. 14 с.
    Вид битрейта : Переменный
    Битрейт : 129 Кбит/сек
    Максимальный битрейт : 213 Кбит/сек
    Каналы : 2 канала
    Расположение каналов : Front: L R
    Частота : 48, 0 КГц
    Частота кадров : 46, 875 кадров/сек (1024 spf)
    Метод сжатия : С потерями
    Размер потока : 19, 7 Мбайт (5%)
    Заголовок : DVO Ozz_tv
    Язык : Russian


    Скриншоты для ознакомления




    Адам портит всё/Adam Ruins Everything (2016) HDTVRip [H.264] (сезон 2, серии 1-7 из 14) Ozz [MP4|1280x720]
    загрузка...
    Рейтинг →
     (голосов: 1, оценка 5/5, голосовать можно 1 раз )

    Другие торренты по теме:

  • Адам портит всё / Adam Ruins Everything (2015) HDTVRip [H.264 / 720p-LQ] (сезон 1, серии 1-3 из 12) Ozz (обновляемая) скачать через торрент бесплатно
  • Адам портит всё / Adam Ruins Everything (2015) HDTVRip [H.264] (сезон 1, серии 1-12 из 12) [MP4 720x404] [EN]
  • Адам портит всё / Adam Ruins Everything (2016) HDTVRip [H.264] (сезон 2, серии 1-3 из 14) Coldfilm [MP4|1280x720]
  • Адам портит всё / Adam Ruins Everything (2017) HDTVRip [H.264 / 720p-LQ] (сезон 2, серии 1-4 из 16) Ozz (обновляемая) [AD]


    • Комментарии (0):

      Информация

      Информация

        Посетители, находящиеся в группе Гости, не могут оставлять комментарии в данной новости.

        ↓ Меню




        ↓ Опрос

        Вы добавили сайт в закладки?
        Да
        Нет


        Top 10 за месяц (КПК и мобильные)