.
Авторизация | Регистрация
Хочешь лучшие торренты? Добавь свой email!
Добавить

Торрент скачать бесплатно

» » Крестный отец: Трилогия. / The Godfsther Collection. (1972 / 1974 / 1990) HDRip [H.264] [MP4|1024x576] торрент скачать бесплатно




    Крестный отец: Трилогия. / The Godfsther Collection. (1972 / 1974 / 1990) HDRip [H.264] [MP4|1024x576] торрент скачать бесплатно

    Опубликовал: Админ | Дата: 11-10-2016, 04:01 | Просмотров: 64

    Производство: США/Paramount Pictures, Alfran Productions
    Жанр: Драма, Криминал
    Режиссер: Френсис Форд Коппола
    Актeры: Марлон Брандо, Аль Пачино, Джеймс Каан, Роберт Дювалл, Ричард С. Кастеллано, Дайан Китон, Талия Шайр, Джон Казале, Аль Леттьери, Стерлинг Хейден
    Опиcание:
    Криминальная сага, повествующая о нью-йоркской сицилийской мафиозной семье Корлеоне. Фильм охватывает период 1945-1955 годов.
    Глава семьи, Дон Вито Корлеоне, выдаёт замуж свою дочь. В это время со Второй мировой войны возвращается его любимый сын Майкл. Майкл, герой войны, гордость семьи, не выражает желания заняться жестоким семейным бизнесом. Дон Корлеоне ведёт дела по старым правилам, но наступают иные времена, и появляются люди, желающие изменить сложившиеся порядки. На Дона Корлеоне совершается покушение.

    Возраст: 16+ (зрителям, достигшим 16 лет)
    Рейтинг MPAA: R (лицам до 17 лет обязательно присутствие взрослого)
    Продолжительноcть: 02: 57: 09
    Качество видео: HDRip
    Пeревод: Многоголосый закадровый
    Вид субтитров: Вшитые отключаемые
    Язык субтитров: Русский, Английский
    Видео: AVC/H.264 (Base@L3.1 ), 1024x576 (16: 9), 2200 Кбит/сек
    Аудио #1: AAC, 2 канала, 128 Кбит/сек - русский (многоголосый закадровый)
    Аудио #2: AAC, 2 канала, 128 Кбит/сек - английский
    Код: выделить все

    General
    Complete name : C:CREATE264mod1outThe Godfather-The Coppola Restoration (1972-1990).HDRip.AAC.x264.NNMclubThe Godfather.1972.576p.HDRip.AAC.x264.NNMclub.mp4
    Format : MPEG-4
    Format profile : Base Media/Version 2
    Codec ID : mp42 (mp42/isom)
    File size : 3.05 GiB
    Duration : 2h 57mn
    Overall bit rate mode : Variable
    Overall bit rate : 2 464 Kbps
    Movie name : The Godfather: The Coppola Restoration
    Performer : Francis Ford Coppola
    Director : Francis Ford Coppola
    Actor : Marlon Brando/Al Pacino/James Caan/John Cazale/Robert Duvall/Diane Keaton/Sterling Hayden/Richard Conte/Talia Shire/Al Lettieri
    Screenplay by : Francis Ford Coppola/Mario Puzo
    Producer : Albert S. Ruddy
    Genre : Drama
    ContentType : Short Film
    Description : Francis Ford Coppola\'s epic masterpiece features Marlon Brando in his Oscar ®-winning role*as the patriarch of the Corleone family. Самое интересное в это истории, что об этом Обама ничего не знал. Director Coppola paints a chilling portrait of the Sicilian clan\'s rise and near fall from power in America, masterfully balancing the story between the Corleone\'s family life and the ugly crime business in which they are engaged. Based on Mario Puzo\'s best-selling novel and featuring career-making performances by Al Pacino, James Caan and Robert Duvall, this searing and brilliant film garnered ten Academy Award® nominations, and won three including Best Picture of 1972.
    Recorded date : 1972-03-24
    Encoded date : UTC 2016-10-02 08:25:29
    Tagged date : UTC 2016-10-02 08:48:57
    Cover : Yes
    Rating : None
    LongDescription : Francis Ford Coppola\'s epic masterpiece features Marlon Brando in his Oscar ®-winning role*as the patriarch of the Corleone family. О таком странном сюжете не догадывалась даже Волочкова. Director Coppola paints a chilling portrait of the Sicilian clan\'s rise and near fall from power in America, masterfully balancing the story between the Corleone\'s family life and the ugly crime business in which they are engaged. Based on Mario Puzo\'s best-selling novel and featuring career-making performances by Al Pacino, James Caan and Robert Duvall, this searing and brilliant film garnered ten Academy Award® nominations, and won three including Best Picture of 1972.
    AppleStoreCountry : United States
    AppleStoreCatalogID : 285494571
    ContentRating : mpaa|R|400|
    Video
    ID : 1
    Format : AVC
    Format/Info : Advanced Video Codec
    Format profile :Main@L3.1
    Format settings, CABAC : No
    Format settings, ReFrames : 3 frames
    Codec ID : avc1
    Codec ID/Info : Advanced Video Coding
    Duration : 2h 57mn
    Bit rate : 2 200 Kbps
    Width : 1 024 pixels
    Height : 576 pixels
    Display aspect ratio : 16:9
    Frame rate mode : Variable
    Frame rate : 23.976 (24000/1001) fps
    Minimum frame rate : 23.810 fps
    Maximum frame rate : 24.390 fps
    Color space : YUV
    Chroma subsampling : 4:2:0
    Bit depth : 8 bits
    Scan type : Progressive
    Bits/(Pixel*Frame) : 0.156
    Stream size : 2.72 GiB (89%)
    Writing library : x264 core 148 r2721+55 e19946b t_mod_Custom [8-bit@all X86]
    Encoding settings : cabac=0/ref=3/deblock=1:0:0/analyse=0x1:0x131/me=umh/subme=7/psy=1/fade_compensate=0.00/psy_rd=1.00:0.00/mixed_ref=1/me_range=32/chroma_me=1/trellis=2/8x8dct=0/cqm=0/deadzone=21, 11/fast_pskip=0/chroma_qp_offset=-2/threads=12/lookahead_threads=2/sliced_threads=0/nr=0/decimate=0/interlaced=0/bluray_compat=0/constrained_intra=0/fgo=0/bframes=3/b_pyramid=1/b_adapt=2/b_bias=0/direct=3/weightb=1/open_gop=0/weightp=2/keyint=240/keyint_min=23/scenecut=40/intra_refresh=0/rc_lookahead=50/rc=2pass/mbtree=1/bitrate=2200/ratetol=1.0/qcomp=0.60/qpmin=0:0:0/qpmax=69:69:69/qpstep=4/cplxblur=20.0/qblur=0.5/vbv_maxrate=14000/vbv_bufsize=14000/nal_hrd=none/filler=0/ip_ratio=1.40/aq=3:1.00/aq-sensitivity=10.00/aq-factor=1.00:1.00:1.00/aq2=1:0.80/aq2-sensitivity=13.00/aq2-factor=1.00:1.00:1.00/aq3=4:[0.50:0.50]:[0.50:0.50]:[0.50:0.50]:[0.50:0.50]/aq3-sensitivity=10.00/aq3-factor=[1.00:1.00]:[1.00:1.00]:[1.00:1.00]/aq3-boundary=192:64:24
    Encoded date : UTC 2016-10-02 08:25:29
    Tagged date : UTC 2016-10-02 08:36:45
    Color range : Limited
    Matrix coefficients : BT.709
    Audio #1
    ID : 2
    Format : AAC
    Format/Info : Advanced Audio Codec
    Format profile : LC
    Codec ID : 40
    Duration : 2h 57mn
    Source duration : 2h 57mn
    Bit rate mode : Variable
    Bit rate : 128 Kbps
    Maximum bit rate : 133 Kbps
    Channel(s) : 2 channels
    Channel positions : Front: L R
    Sampling rate : 48.0 KHz
    Frame rate : 46.875 fps (1024 spf)
    Compression mode : Lossy
    Stream size : 162 MiB (5%)
    Source stream size : 162 MiB (5%)
    Language : Russian
    Default : Yes
    Alternate group : 1
    Encoded date : UTC 2016-10-02 08:25:29
    Tagged date : UTC 2016-10-02 08:36:45
    Audio #2
    ID : 3
    Format : AAC
    Format/Info : Advanced Audio Codec
    Format profile : LC
    Codec ID : 40
    Duration : 2h 57mn
    Source duration : 2h 57mn
    Bit rate mode : Variable
    Bit rate : 128 Kbps
    Maximum bit rate : 133 Kbps
    Channel(s) : 2 channels
    Channel positions : Front: L R
    Sampling rate : 48.0 KHz
    Frame rate : 46.875 fps (1024 spf)
    Compression mode : Lossy
    Stream size : 162 MiB (5%)
    Source stream size : 162 MiB (5%)
    Language : English
    Default : No
    Alternate group : 1
    Encoded date : UTC 2016-10-02 08:25:29
    Tagged date : UTC 2016-10-02 08:36:45
    Text #1
    ID : 4
    Format : Timed Text
    Muxing mode : sbtl
    Codec ID : tx3g
    Duration : 2h 6mn
    Bit rate mode : Variable
    Bit rate : 3 bps
    Stream size : 2.32 KiB (0%)
    Language : Russian
    Default : Yes
    Forced : No
    Alternate group : 2
    Encoded date : UTC 2016-10-02 08:25:29
    Tagged date : UTC 2016-10-02 08:36:45
    Text #2
    ID : 5
    Format : Timed Text
    Muxing mode : sbtl
    Codec ID : tx3g
    Duration : 2h 52mn
    Bit rate mode : Variable
    Bit rate : 81 bps
    Stream size : 103 KiB (0%)
    Language : Russian
    Default : No
    Forced : No
    Alternate group : 2
    Encoded date : UTC 2016-10-02 08:25:29
    Tagged date : UTC 2016-10-02 08:36:45
    Text #3
    ID : 6
    Format : Timed Text
    Muxing mode : sbtl
    Codec ID : tx3g
    Duration : 2h 52mn
    Bit rate mode : Variable
    Bit rate : 46 bps
    Stream size : 58.3 KiB (0%)
    Language : English
    Default : No
    Forced : No
    Alternate group : 2
    Encoded date : UTC 2016-10-02 08:25:29
    Tagged date : UTC 2016-10-02 08:36:46
    Скриншоты:



    Скриншоты для ознакомления




    Крестный отец: Трилогия./The Godfsther Collection. (1972/1974/1990) HDRip [H.264] [MP4|1024x576]
    загрузка...
    Рейтинг →
     (голосов: 1, оценка 4/5, голосовать можно 1 раз )

    Другие торренты по теме:

  • Крестный отец: Трилогия / The Godfather: Trilogy (1972,1974,1990) BDRip [H.264 / 720p-LQ] [Hi10P] скачать через торрент бесплатно
  • Крестный отец: Трилогия / The Godfather: Trilogy (1972,1974,1990) BDRip [H.264] скачать через торрент бесплатно
  • Крестный отец / The Godfather Collection (1972 - 1990) BDRip [H.264] [The Coppola Restoration] [Трилогия] скачать через торрент бесплатно
  • Крестный отец 2 / The Godfather: Part II (1974) BDRip [H.264 / 720p] скачать через торрент бесплатно
  • Крестный отец / The Godfather (1972) BDRip [H.264 / 720p] скачать через торрент бесплатно
  • Nino Rota - Крестный отец / Godfather (1972) [AAC|WEB-DL|256 кб / с]<Score> скачать через торрент бесплатно
  • Иван Просветов | «Крестный отец» Штирлица (2015) [FB2] скачать через торрент бесплатно
  • Крестный отец / The Godfather Collection: The Coppola Restoration (1972-1990) BDRemux [H.264 / 1080p] [Трилогия] скачать через торрент бесплатно


    • Комментарии (0):

      Информация

      Информация

        Посетители, находящиеся в группе Гости, не могут оставлять комментарии в данной новости.

        ↓ Меню




        ↓ Опрос

        Вы добавили сайт в закладки?
        Да
        Нет


        Top 10 за месяц (КПК и мобильные)