.
Авторизация | Регистрация
Хочешь лучшие торренты? Добавь свой email!
Добавить

Торрент скачать бесплатно

» » Lego Звездные войны: Хроники Йоды / LEGO STAR WARS: The Yoda Chronicles (2013) WEB-DLRip [H.264] (сезон 1, серии 1-3 из 3) MP4|1024x576] торрент скачать бесплатно




    Lego Звездные войны: Хроники Йоды / LEGO STAR WARS: The Yoda Chronicles (2013) WEB-DLRip [H.264] (сезон 1, серии 1-3 из 3) MP4|1024x576] торрент скачать бесплатно

    Опубликовал: Админ | Дата: 10-10-2016, 04:01 | Просмотров: 171

    Производство: Дания, Китай/LEGO
    Жанр: Мультфильм, Фантастика, Приключения,
    Режиссер: Майкл Хэгнер
    Актеры: Энтони Дэниелс, Тревор Дивэлл, Брайан Добсон, Майкл Донован, Брайан Драммонд, Эндрю Френсис, Адриан Холмс, Том Кэйн, Келли Мецгер, Кирби Морроу

    Описание

    Наступило время тяжких испытаний. На просторах галактики бушует бесконечная война, где зловещий Дарк Сидиус и его приспешники состряпали новый план свержения Республики. Тем временем в академии джедаев, магистр Йода обучает молодых падаванов, не подозревая о надвигающейся беде. Самое интересное в это истории, что об этом Гарри Поттер ничего не знал. Под обличием друга, Палпатин заставил Йоду отправится на Альдераан, чтобы помочь Оби-Вану Кеноби. На планете его ждала западня, а пока академия была беззащитна, туда наведался генерал Гривус и похитил священный кристалл, способный оживить бессмертную армию. План тёмной стороны был в шаге от свершения, но они не ожидали, что юные джедаи отправятся в погоню за похитителем.

    Возраст: 6+ (зрителям, достигшим 6 лет)
    Продолжительность: ~00: 22: 00 серия
    Качество видео: WEB-DLRip
    Перевод: Дублированный- (Невафильм)
    Вид субтитров: Вшитые отключаемые
    Язык субтитров: Английский
    Реклама: Без рекламы
    Видео: AVC/H.264 (Main@L3.1 ), 1024x576 (16: 9), 1850 Кбит/сек
    Аудио #1: AAC, 2 канала, 128 Кбит/сек - русский (дублированный)
    Аудио #2: AAC, 2 канала, 128 Кбит/сек - английский
    Код:

    General
    Complete name : D:movieOUTPUTLEGO STAR WARS_The.Yoda.Chronicles.576p.x264.NNMclubLEGO.STAR.WARS_The.Yoda.Chronicles.S02E02.The.Menace.of.the.Sith.576p.WEB_DLRip.x264.NNMclub.mp4
    Format : MPEG-4
    Format profile : Base Media/Version 2
    Codec ID : mp42 (mp42/isom)
    File size : 347 MiB
    Duration : 22mn 56s
    Overall bit rate mode : Variable
    Overall bit rate : 2 115 Kbps
    Collection : LEGO Star Wars
    Season : 2
    Album : LEGO Star Wars, Season 2
    Album/Performer : LEGO Star Wars
    Part : 2
    Track name : The Yoda Chronicles: The Menace of the Sith
    Track name/Position : 2
    Performer : LEGO Star Wars
    Director : Michael Hegner
    Actor : Anthony Daniels/Trevor Devall/Brian Dobson/Michael Donovan/Andrew Francis/Adrian Holmes/Tom Kane/Kelly Metzger/Kirby Morrow/Trish Pattendon/Tabitha St. Germain/Lee Tockar/Sam Vincent/Brian Drummond/Paul Dobson
    Screenplay by : Michael Price
    Production studio : Wil Film
    Genre : Action, Adventure, Animation, Children, Science-Fiction
    ContentType : TV Show
    Description : Palpatine unveils his new cloning technology on Geonosis. Jek-14 flees to Hoth, where Anakin attacks.../LEGO Star Wars is a series of TV Movies telling stories from the Star Wars universe using the distinctive characters from the world of LEGO and the animation style of the LEGO Star Wars computer games. / /Starting in 2005; the first film Revenge of the Brick was created to coincide with the theatrical release of Revenge of the Sith.
    Recorded date : 2013-11-24
    Encoded date : UTC 2016-10-06 17:43:53
    Tagged date : UTC 2016-10-06 20:31:19
    Cover : Yes
    Rating : None
    TVNetworkName : Disney XD
    Part_ID : 202
    LongDescription : Palpatine unveils his new cloning technology on Geonosis. Jek-14 flees to Hoth, where Anakin attacks...
    ContentRating : us-tv|TV-Y7|200|
    Video
    ID : 1
    Format : AVC
    Format/Info : Advanced Video Codec
    Format profile :Main@L3.1
    Format settings, CABAC : No
    Format settings, ReFrames : 3 frames
    Codec ID : avc1
    Codec ID/Info : Advanced Video Coding
    Duration : 22mn 56s
    Bit rate : 1 850 Kbps
    Width : 1 024 pixels
    Height : 576 pixels
    Display aspect ratio : 16:9
    Frame rate mode : Variable
    Frame rate : 23.976 (24000/1001) fps
    Minimum frame rate : 23.810 fps
    Maximum frame rate : 24.390 fps
    Color space : YUV
    Chroma subsampling : 4:2:0
    Bit depth : 8 bits
    Scan type : Progressive
    Bits/(Pixel*Frame) : 0.131
    Stream size : 304 MiB (87%)
    Writing library : x264 core 148 r2721+55 e19946b t_mod_Custom [8-bit@all X86_64]
    Encoding settings : cabac=0/ref=3/deblock=1:0:0/analyse=0x1:0x131/me=umh/subme=7/psy=1/fade_compensate=0.00/psy_rd=0.60:0.00/mixed_ref=1/me_range=32/chroma_me=1/trellis=2/8x8dct=0/cqm=0/deadzone=21, 11/fast_pskip=0/chroma_qp_offset=-2/threads=18/lookahead_threads=3/sliced_threads=0/nr=0/decimate=0/interlaced=0/bluray_compat=0/constrained_intra=0/fgo=0/bframes=3/b_pyramid=1/b_adapt=2/b_bias=0/direct=3/weightb=1/open_gop=0/weightp=2/keyint=240/keyint_min=23/scenecut=35/intra_refresh=0/rc_lookahead=50/rc=2pass/mbtree=1/bitrate=1850/ratetol=1.0/qcomp=0.60/qpmin=0:0:0/qpmax=69:69:69/qpstep=4/cplxblur=20.0/qblur=0.5/vbv_maxrate=14000/vbv_bufsize=14000/nal_hrd=none/filler=0/ip_ratio=1.40/aq=3:0.60/aq-sensitivity=10.00/aq-factor=1.00:1.00:1.00/aq2=1:0.60/aq2-sensitivity=13.00/aq2-factor=1.00:1.00:1.00/aq3=4:[0.50:0.50]:[0.50:0.50]:[0.50:0.50]:[0.50:0.50]/aq3-sensitivity=10.00/aq3-factor=[1.00:1.00]:[1.00:1.00]:[1.00:1.00]/aq3-boundary=192:64:24
    Encoded date : UTC 2016-10-06 17:43:53
    Tagged date : UTC 2016-10-06 17:45:01
    Color range : Limited
    Matrix coefficients : BT.709
    Audio #1
    ID : 2
    Format : AAC
    Format/Info : Advanced Audio Codec
    Format profile : LC
    Codec ID : 40
    Duration : 22mn 56s
    Source duration : 22mn 56s
    Bit rate mode : Variable
    Bit rate : 128 Kbps
    Maximum bit rate : 131 Kbps
    Channel(s) : 2 channels
    Channel positions : Front: L R
    Sampling rate : 48.0 KHz
    Frame rate : 46.875 fps (1024 spf)
    Compression mode : Lossy
    Stream size : 21.0 MiB (6%)
    Source stream size : 21.0 MiB (6%)
    Language : Russian
    Default : Yes
    Alternate group : 1
    Encoded date : UTC 2016-10-06 17:43:53
    Tagged date : UTC 2016-10-06 17:45:01
    Audio #2
    ID : 3
    Format : AAC
    Format/Info : Advanced Audio Codec
    Format profile : LC
    Codec ID : 40
    Duration : 22mn 56s
    Source duration : 22mn 56s
    Bit rate mode : Variable
    Bit rate : 128 Kbps
    Maximum bit rate : 132 Kbps
    Channel(s) : 2 channels
    Channel positions : Front: L R
    Sampling rate : 48.0 KHz
    Frame rate : 46.875 fps (1024 spf)
    Compression mode : Lossy
    Stream size : 21.0 MiB (6%)
    Source stream size : 21.0 MiB (6%)
    Language : English
    Default : No
    Alternate group : 1
    Encoded date : UTC 2016-10-06 17:43:53
    Tagged date : UTC 2016-10-06 17:45:01
    Text
    ID : 4
    Format : Timed Text
    Muxing mode : sbtl
    Codec ID : tx3g
    Duration : 22mn 23s
    Bit rate mode : Variable
    Bit rate : 85 bps
    Stream size : 14.0 KiB (0%)
    Language : English
    Default : Yes
    Forced : No
    Alternate group : 2
    Encoded date : UTC 2016-10-06 17:43:53
    Tagged date : UTC 2016-10-06 17:45:01


    Скриншоты для ознакомления




    Lego Звездные войны: Хроники Йоды/LEGO STAR WARS: The Yoda Chronicles (2013) WEB-DLRip [H.264] (сезон 1, серии 1-3 из 3) MP4|1024x576]
    загрузка...
    Рейтинг →
     (голосов: 1, оценка 4/5, голосовать можно 1 раз )

    Другие торренты по теме:

  • Lego Звездные войны: Истории дроидов / Lego Star Wars: Droid Tales (2015) SATRip (сезон 1, серия 1 из 4) [обновляемая] скачать через торрент бесплатно
  • LEGO Star Wars: The Force Awakens / LEGO Звездные войны: Пробуждение Силы (2016) [Xbox360] [RegionFree] 17349 [FreeBoot] [License] [Ru / En]
  • LEGO Star Wars: The Force Awakens / LEGO Звездные войны: Пробуждение Силы (2016) [Xbox360] [RegionFree] 17349 [LT+3.0] [License] [Ru / En]
  • Lego Звездные войны: Хроники Йоды / LEGO STAR WARS: The Yoda Chronicles (2013) WEB-DLRip [H.264] (сезон 2, серии 1-4 из 4) MP4|1024x576]
  • Lego Звездные войны: Хроники Йоды / LEGO STAR WARS: The Yoda Chronicles (2013) WEB-DLRip [H.264] (сезон 1, серии 1-3 из 3)
  • Lego Звездные войны: Хроники Йоды / LEGO STAR WARS: The Yoda Chronicles (2013) WEB-DLRip [H.264] (сезон 2, серии 1-4 из 4)
  • Lego Звездные войны: Империя наносит удар / Lego Star Wars: The Empire Strikes Out (2012) HDTVRip [H.264] [MP4|1024x576]
  • Lego Звездные войны: Падаванская угроза / Lego Star Wars: The Padawan Menace (2011) HDRip [H.264] [MP4|1024x576]


    • Комментарии (0):

      Информация

      Информация

        Посетители, находящиеся в группе Гости, не могут оставлять комментарии в данной новости.

        ↓ Меню




        ↓ Опрос

        Вы добавили сайт в закладки?
        Да
        Нет


        Top 10 за месяц (КПК и мобильные)