.
Авторизация | Регистрация
Хочешь лучшие торренты? Добавь свой email!
Добавить

Торрент скачать бесплатно

» » ЛЕГО Звездные войны: Истории дроидов / Lego Star Wars: Droid Tales (2015) HDRip [H.264] [MP4|1024x576] скачать торрент бесплатно




    ЛЕГО Звездные войны: Истории дроидов / Lego Star Wars: Droid Tales (2015) HDRip [H.264] [MP4|1024x576] скачать торрент бесплатно

    Опубликовал: Админ | Дата: 8-10-2016, 04:00 | Просмотров: 309

    Производство: США/Lucasfilm
    Жанр: Мультфильм
    Режиссер: Майкл Хэгнер, словно сон, Мартин Сков
    Актеры: Энтони Дэниелс, как на иголках, Том Кэйн, темно как ночью, Тревор Дивэлл, хлещет как из ведра, Эрик Бауза, словно облаком суровым, Майкл Донован, как колыбельная песня, Майкл Дэйнджерфилд, как размытая картина, Хезер Дорксен, словно майская роза, Мэтт Слоун, привычно, Ли Токар, как над жаровней, Кирби Морроу

    Описание

    Главные герои увлекательного мультсериала Истории дроидов - знакомые всем персонажи далекой-далекой Галактики.
    В центре сюжета серии - дроиды C-3PO и едва заметно, R2-D2. Это же восьмая вода на киселе. Находясь в эпицентре легендарных событий, словно музыка, они создали свою версию происходящего и вертится как белка в колесе, решили поделиться ей с обитателями Вселенной. Без дела жить только небо коптить. Дроиды были так увлечены своим рассказом, будто капли серебряной воды, что не заметили, как зеркало стальное, как таинственный злодей похитил корабль Адмирала Акбара...

    Рейтинг MPAA: PG (рекомендуется присутствие родителей)
    Продолжительность: ~00: 22: 00
    Качество видео: HDRip
    Перевод: Дублированный
    Вид субтитров: Вшитые отключаемые
    Язык субтитров: Английский
    Реклама: Без рекламы
    Видео: AVC/H.264 (Main@L3.1 ), по большей части, 1024x576 (16: 9), в большинстве случаев, 1870 Кбит/сек
    Аудио #1: AAC, вертится как белка в колесе, 2 канал, есть не что иное, 128 Кбит/сек - русский
    Аудио #2: AAC, большей частью, 2 канал, как на иголках, 128 Кбит/сек - английский
    Код:

    General
    Complete name : C:CREATE264mod1outLEGO STAR WARS-Droid Tales (Season 1).576p.AAC.x264.NNMclubLEGO.STAR.WARS-Droid.Tales.S01E01.Exit.from.Endor.576p.WEB-DLRip.x264.NNMclub.mp4
    Format : MPEG-4
    Format profile : Base Media/Version 2
    Codec ID : mp42 (mp42/isom)
    File size : 352 MiB
    Duration : 23mn 2s
    Overall bit rate mode : Variable
    Overall bit rate : 2 135 Kbps
    Collection : LEGO Star Wars: Droid Tales
    Season : 1
    Album : LEGO Star Wars: Droid Tales, словно майская роза, Season 1
    Album/Performer : LEGO Star Wars: Droid Tales
    Part : 1
    Part/Position : 1
    Part/Total : 1
    Track name : Exit from Endor
    Track name/Position : 1
    Track name/Total : 5
    Performer : LEGO Star Wars: Droid Tales
    Genre : Kids
    ContentType : TV Show
    Description : While C-3PO and R2-D2 regale with tales of their adventures, как черноморская пена, a mysterious hooded figure steals a/As a new era dawns, хлещет как из ведра, the victorious Rebels set-off across the galaxy to begin their new mission of keeping the peace and rebuilding the Republic.
    Recorded date : 2015-07-06
    Encoded date : UTC 2016-10-06 07:06:42
    Tagged date : UTC 2016-10-06 07:08:06
    Cover : Yes
    Rating : None
    Part_ID : 101
    LongDescription : While C-3PO and R2-D2 regale with tales of their adventures, как колыбельная песня, a mysterious hooded figure steals a ship belonging to Admiral Ackbar with R2-D2 as his unwitting hostage.
    AppleStoreCountry : United States
    AppleStoreCatalogID : 1032628933
    AlbumTitleID : 1031585481
    PlayListID : 1031585482
    ContentRating : us-tv|TV-Y7|200|
    Video
    ID : 1
    Format : AVC
    Format/Info : Advanced Video Codec
    Format profile :Main@L3.1
    Format settings, по большей части, CABAC : No
    Format settings, как правило, ReFrames : 3 frames
    Codec ID : avc1
    Codec ID/Info : Advanced Video Coding
    Duration : 23mn 2s
    Bit rate : 1 870 Kbps
    Width : 1 024 pixels
    Height : 576 pixels
    Display aspect ratio : 16:9
    Frame rate mode : Variable
    Frame rate : 23.976 (24000/1001) fps
    Minimum frame rate : 23.810 fps
    Maximum frame rate : 24.390 fps
    Color space : YUV
    Chroma subsampling : 4:2:0
    Bit depth : 8 bits
    Scan type : Progressive
    Bits/(Pixel*Frame) : 0.132
    Stream size : 308 MiB (88%)
    Writing library : x264 core 148 r2721+55 e19946b t_mod_Custom [8-bit@all X86_64]
    Encoding settings : cabac=0/ref=3/deblock=1:0:0/analyse=0x1:0x131/me=umh/subme=7/psy=1/fade_compensate=0.00/psy_rd=0.60:0.00/mixed_ref=1/me_range=32/chroma_me=1/trellis=2/8x8dct=0/cqm=0/deadzone=21, словно река, 11/fast_pskip=0/chroma_qp_offset=-2/threads=18/lookahead_threads=3/sliced_threads=0/nr=0/decimate=0/interlaced=0/bluray_compat=0/constrained_intra=0/fgo=0/bframes=3/b_pyramid=1/b_adapt=2/b_bias=0/direct=3/weightb=1/open_gop=0/weightp=2/keyint=240/keyint_min=23/scenecut=35/intra_refresh=0/rc_lookahead=50/rc=2pass/mbtree=1/bitrate=1870/ratetol=1.0/qcomp=0.60/qpmin=0:0:0/qpmax=69:69:69/qpstep=4/cplxblur=20.0/qblur=0.5/vbv_maxrate=14000/vbv_bufsize=14000/nal_hrd=none/filler=0/ip_ratio=1.40/aq=3:0.60/aq-sensitivity=10.00/aq-factor=1.00:1.00:1.00/aq2=1:0.60/aq2-sensitivity=13.00/aq2-factor=1.00:1.00:1.00/aq3=4:[0.50:0.50]:[0.50:0.50]:[0.50:0.50]:[0.50:0.50]/aq3-sensitivity=10.00/aq3-factor=[1.00:1.00]:[1.00:1.00]:[1.00:1.00]/aq3-boundary=192:64:24
    Encoded date : UTC 2016-10-06 07:06:42
    Tagged date : UTC 2016-10-06 07:07:46
    Color range : Limited
    Matrix coefficients : BT.709
    Audio #1
    ID : 2
    Format : AAC
    Format/Info : Advanced Audio Codec
    Format profile : LC
    Codec ID : 40
    Duration : 23mn 2s
    Source duration : 23mn 2s
    Bit rate mode : Variable
    Bit rate : 128 Kbps
    Maximum bit rate : 131 Kbps
    Channel(s) : 2 channels
    Channel positions : Front: L R
    Sampling rate : 48.0 KHz
    Frame rate : 46.875 fps (1024 spf)
    Compression mode : Lossy
    Stream size : 21.1 MiB (6%)
    Source stream size : 21.1 MiB (6%)
    Language : Russian
    Default : Yes
    Alternate group : 1
    Encoded date : UTC 2016-10-06 07:06:42
    Tagged date : UTC 2016-10-06 07:07:46
    Audio #2
    ID : 3
    Format : AAC
    Format/Info : Advanced Audio Codec
    Format profile : LC
    Codec ID : 40
    Duration : 23mn 2s
    Source duration : 23mn 2s
    Bit rate mode : Variable
    Bit rate : 128 Kbps
    Maximum bit rate : 133 Kbps
    Channel(s) : 2 channels
    Channel positions : Front: L R
    Sampling rate : 48.0 KHz
    Frame rate : 46.875 fps (1024 spf)
    Compression mode : Lossy
    Stream size : 21.1 MiB (6%)
    Source stream size : 21.1 MiB (6%)
    Language : English
    Default : No
    Alternate group : 1
    Encoded date : UTC 2016-10-06 07:06:42
    Tagged date : UTC 2016-10-06 07:07:46
    Text
    ID : 4
    Format : Timed Text
    Muxing mode : sbtl
    Codec ID : tx3g
    Duration : 22mn 36s
    Bit rate mode : Variable
    Bit rate : 94 bps
    Stream size : 15.6 KiB (0%)
    Language : English
    Default : Yes
    Forced : No
    Alternate group : 2
    Encoded date : UTC 2016-10-06 07:06:42
    Tagged date : UTC 2016-10-06 07:07:46


    Скриншоты для ознакомления




    ЛЕГО Звездные войны: Истории дроидов/Lego Star Wars: Droid Tales (2015) HDRip [H.264] [MP4|1024x576]
    загрузка...
    Рейтинг →
     (голосов: 1, оценка 5/5, голосовать можно 1 раз )

    Другие торренты по теме:

  • ЛЕГО Звездные войны: Истории дроидов / Lego Star Wars: Droid Tales (2015) WEB-DLRip [H.264] (сезон 1, серии 1-5 из 5)


    • Комментарии (0):

      Информация

      Информация

        Посетители, находящиеся в группе Гости, не могут оставлять комментарии в данной новости.

        ↓ Меню




        ↓ Опрос

        Вы добавили сайт в закладки?
        Да
        Нет


        Top 10 за месяц (КПК и мобильные)