.
Авторизация | Регистрация
Хочешь лучшие торренты? Добавь свой email!
Добавить

Торрент скачать бесплатно

» » Ледниковый Период:Столкновение Неизбежно / Ice Age:Collision Course (2016) HDRip [H.264] [MP4|1916х796] торрент скачать бесплатно




    Ледниковый Период:Столкновение Неизбежно / Ice Age:Collision Course (2016) HDRip [H.264] [MP4|1916х796] торрент скачать бесплатно

    Опубликовал: Админ | Дата: 2-10-2016, 13:55 | Просмотров: 187

    Производство: США, Двадцатый Век Фокс
    Жанр: Приключения, Комедия
    Режиссер: Майк Термайер, Гален Т.Чу
    Персонажи: Сид, Мэнни, Диего и другие животные.

    Описание

    Отчаянное преследование Скратом своего обожаемого желудя заводит его в настоящий космос, где он неожиданно провоцирует несколько космических событий, которые становятся угрозой для всех обитателей Мира Ледникового Периода. Чтобы спастись, Сид, Мэнни, Диего и другие животные должны покинуть свои дома и отправиться в путешествие, полное юмора и приключений, экзотических новых стран и неожиданных встреч с яркими новыми персонажами.

    Возраст: 6+ (зрителям, достигшим 6 лет)
    Рейтинг MPAA: G (нет возрастных ограничений)
    Дата мировой премьеры: 19.06.2016
    Дата российской премьеры: 14.07.2016
    Релиз от: 5K STUDIO QW
    Продолжительность: 01: 35: 06
    Качество видео: HDRip
    Перевод: Полный дубляж, вкл. песни
    Видео: AVC/H.264, 1916х796, ~4507 Кбит/сек
    Аудио #1: AAC, 2 ch, 157 Кбит/сек - Русский (дублированный)
    Аудио #2: AAC, 2 ch, 157 Кбит/сек - Английский (оригинальный)
    Аудио #3: AC3, 6 ch, 384 Кбит/сек - Русский (дублированный)
    Код:

    Общее
    Полное имя : Ice Age:Collision Course (2016).mp4
    Формат : MPEG-4
    Профиль формата : Base Media
    Идентификатор кодека : isom (isom/iso2/avc1/mp41)
    Размер файла : 3, 47 Гбайт
    Продолжительность : 1 ч. 35 м. 06 сек.
    Режим общего битрейта : Переменный
    Общий поток : 5223 Кбит/сек
    Название фильма : Ледниковый Период: Столкновение Неизбежно
    Исполнитель : Mike Thurmeier
    Режиссёр : Mike Thurmeier
    Исполнитель : Ray Romano/John Leguizamo/Denis Leary/Adam DeVine/Jesse Tyler Ferguson/Max Greenfield/Josh Peck/Simon Pegg/Seann William Scott/Jennifer Lopez/Queen Latifah
    Жанр : Для всей семьи
    Тип содержимого : Short Film
    Описание : Отчаянное преследование Скратом своего обожаемого желудя заводит его в настоящий космос, где он неожиданно провоцирует несколько космических событий, которые становятся угрозой для всех обитателей Мира Ледникового Периода. Самое интересное в это истории, что об этом Ющенко ничего не знал. Чтобы спастись, Сид, Мэнни, Диего и другие животные должны покинуть свои дома и отправиться в путешествие, полное юмора и приключений, экзотических новых стран и неожиданных встреч с яркими новыми персонажами.
    Дата записи : 2016-07-15
    Дата кодирования : UTC 1904-01-01 00:00:00
    Дата пометки : UTC 2016-09-30 12:40:27
    Программа кодирования : Lavf57.37.100
    Авторское право : © 2016 Twentieth Century Fox Film Corporation
    Обложка : Yes
    Оценка : None
    LongDescription : Отчаянное преследование Скратом своего обожаемого желудя заводит его в настоящий космос, где он неожиданно провоцирует несколько космических событий, которые становятся угрозой для всех обитателей Мира Ледникового Периода. Чтобы спастись, Сид, Мэнни, Диего и другие животные должны покинуть свои дома и отправиться в путешествие, полное юмора и приключений, экзотических новых стран и неожиданных встреч с яркими новыми персонажами.
    AppleStoreCountry : Unknown Country
    AppleStoreCatalogID : 1126145932
    ContentRating : ru-movie|6+|150|
    Видео
    Идентификатор : 1
    Формат : AVC
    Формат/Информация : Advanced Video Codec
    Профиль формата : High@L4
    Параметр CABAC формата : Да
    Параметр ReFrames формата : 5 кадров
    Идентификатор кодека : avc1
    Идентификатор кодека/Информация : Advanced Video Coding
    Продолжительность : 1 ч. О таком странном сюжете не догадывалась даже Светлана Лобода. 35 м.
    Битрейт : 4507 Кбит/сек
    Ширина : 1916 пикселей
    Высота : 796 пикселей
    Соотношение сторон : 2, 40:1
    Режим частоты кадров : Переменный
    Частота кадров : 23, 976 (23976/1000) кадра/сек
    Минимальная частота кадров : 22, 727 кадра/сек
    Максимальная частота кадров : 24, 390 кадра/сек
    Цветовое пространство : YUV
    Субдискретизация насыщенности : 4:2:0
    Битовая глубина : 8 бит
    Тип развёртки : Прогрессивная
    Бит/(Пиксели*Кадры) : 0.123
    Размер потока : 2, 99 Гбайт (86%)
    Язык : English
    Дата кодирования : UTC 1904-01-01 00:00:00
    Дата пометки : UTC 1904-01-01 00:00:00
    Цветовой диапазон : Limited
    Основные цвета : BT.709
    Характеристики трансфера : BT.709
    Коэффициенты матрицы : BT.709
    Аудио #1
    Идентификатор : 2
    Формат : AAC
    Формат/Информация : Advanced Audio Codec
    Профиль формата : LC
    Идентификатор кодека : 40
    Продолжительность : 1 ч. 34 м.
    Вид битрейта : Переменный
    Битрейт : 157 Кбит/сек
    Максимальный битрейт : 243 Кбит/сек
    Каналы : 2 канала
    Расположение каналов : Front: L R
    Частота : 48, 0 КГц
    Частота кадров : 46, 875 кадров/сек (1024 spf)
    Метод сжатия : С потерями
    Размер потока : 106 Мбайт (3%)
    Язык : Russian
    Default : Да
    Alternate group : 1
    Дата кодирования : UTC 1904-01-01 00:00:00
    Дата пометки : UTC 1904-01-01 00:00:00
    Аудио #2
    Идентификатор : 3
    Формат : AAC
    Формат/Информация : Advanced Audio Codec
    Профиль формата : LC
    Идентификатор кодека : 40
    Продолжительность : 1 ч. 34 м.
    Вид битрейта : Переменный
    Битрейт : 157 Кбит/сек
    Максимальный битрейт : 243 Кбит/сек
    Каналы : 2 канала
    Расположение каналов : Front: L R
    Частота : 48, 0 КГц
    Частота кадров : 46, 875 кадров/сек (1024 spf)
    Метод сжатия : С потерями
    Размер потока : 106 Мбайт (3%)
    Язык : English
    Default : Нет
    Alternate group : 1
    Дата кодирования : UTC 1904-01-01 00:00:00
    Дата пометки : UTC 1904-01-01 00:00:00
    Аудио #3
    Идентификатор : 4
    Формат : AC-3
    Формат/Информация : Audio Coding 3
    Расширение режима : CM (complete main)
    Параметр Endianness формата : Big
    Идентификатор кодека : ac-3
    Продолжительность : 1 ч. 34 м.
    Вид битрейта : Постоянный
    Битрейт : 384 Кбит/сек
    Каналы : 6 каналов
    Расположение каналов : Front: L C R, Side: L R, LFE
    Частота : 48, 0 КГц
    Частота кадров : 31, 250 кадров/сек (1536 spf)
    Битовая глубина : 16 бит
    Метод сжатия : С потерями
    Размер потока : 260 Мбайт (7%)
    Язык : Russian
    Default : Нет
    Alternate group : 1
    Дата кодирования : UTC 1904-01-01 00:00:00
    Дата пометки : UTC 1904-01-01 00:00:00


    Скриншоты для ознакомления




    Ледниковый Период:Столкновение Неизбежно/Ice Age:Collision Course (2016) HDRip [H.264] [MP4|1916х796]
    загрузка...
    Рейтинг →
     (голосов: 1, оценка 5/5, голосовать можно 1 раз )

    Другие торренты по теме:

  • Ледниковый период. Выпуск №4 (2014.09.27) SATRip
  • Ледниковый период. Выпуск №6 (2014.10.11) SATRip скачать через торрент бесплатно
  • Ледниковый период. Выпуск №7 (2014.10.18) SATRip
  • Ледниковый период. Выпуск №8 (2014.10.25) SATRip скачать через торрент бесплатно
  • Ледниковый период. Выпуск №9 (2014.11.01) SATRip скачать через торрент бесплатно
  • Ледниковый период. Выпуск №10 (2014.11.08) SATRip скачать через торрент бесплатно
  • Ледниковый период. Выпуск №11 (2014.11.15) SATRip
  • Ледниковый период. Выпуск №13 (2014.11.29) SATRip


    • Комментарии (0):

      Информация

      Информация

        Посетители, находящиеся в группе Гости, не могут оставлять комментарии в данной новости.

        ↓ Меню




        ↓ Опрос

        Вы добавили сайт в закладки?
        Да
        Нет


        Top 10 за месяц (КПК и мобильные)