.
|

:


:

→ ?
→ ?
? email!

» » : . / Overheard Trilogy. (2009 / 2011 / 2014) HDRip [H.264] [MP4|852x362@640x362]




    : . / Overheard Trilogy. (2009 / 2011 / 2014) HDRip [H.264] [MP4|852x362@640x362]

    : | : 27-09-2016, 04:01 | : 285

    : , , , Bona Entertainment, Sil-Metropole Organisation, Beijing EE-Media Co.
    : ,
    : ,
    e: , , , , , , , , , , , , , , , , , ,
    c:
    o, Mac, oece oea pacceoa ooecx pecye, ey pocyy aee a pyo oae, aaec axa a pe ex ya. e o eao c oee, ocea aca eeee paoop copyo oa. Ho oa o acea paoop a oa co coe , oopoo ya, o a cey e x a e. Mooe , oopoy eoxo e a oepa ca, ypaae Maca e pooopoa o paoop, a cooa oyey opa ca cpa a pe. Mac, oop copaec ec a eye oao ce cae ocooe aee co copo yyeo ec, o oooc oece cee eacoc. o, ya o pooee, ooae ooe aec ce. . Ho a cey e o yee caoc eco, op pocaaa, a oay o oepa ypeey pacceoa, o pe a aop copao aep y ox.

    :
    c: 01: 39: 29
    : HDRip
    e: -.
    :
    : ,
    : AVC/H.264 (Base@L3.0 ), 852x364@640x364 (2.35: 1), 1450 /
    #1: AAC, 2 , 132 / - ( )
    #2: AAC, 2 , 132 / -
    :

    General
    Complete name : C:DGIOverheard Trilogy (2009-2014).480p.AAC.x264.NNMclubOverheard-I.2009.480p.HDRip.AAC.x264.NNMclub.mp4
    Format : MPEG-4
    Codec ID : M4V (isom/avc1/iso2/M4A /M4V /mp42)
    File size : 1.19 GiB
    Duration : 1h 39mn
    Overall bit rate mode : Variable
    Overall bit rate : 1 716 Kbps
    Movie name :
    Performer : Felix Chong, Alan Mak
    Director : /
    Actor : Sean Lau (Johnny)/Louis Koo (Gene)/Daniel Wu (Max)/Zhang Jingchu (Mandy)/Michael Wong (Will Ma)/Alex Fong Chung-Sun/Waise Lee/Stephen Au/Queenie Chu/Dominic Lam Ka-Wah/Sharon Luk/William Chan Wai-Ting/ / / / / / / / -/ /
    Screenplay by : /
    Producer : /- /
    Genre : Thriller
    ContentType : Short Film
    Description : o, Mac, oece oea pacceoa ooecx , ey pocyy aee a pyo oae, aaec axa a ex ya.
    Recorded date : UTC 2009-07-24 08:00:00
    Encoded date : UTC 2015-02-19 13:07:52
    Tagged date : UTC 2016-09-25 20:08:54
    Copyright : 2009 Bona Entertainment Company Limited All Rights Reserved.
    Cover : Yes
    Rating : None
    Title/Sort : Sit yan fung wan
    LongDescription : o, Mac, oece oea pacceoa ooecx pecye, ey pocyy aee a pyo oae, aaec axa a pe ex ya. e o eao c oee, ocea aca eeee paoop copyo oa. Ho oa o acea paoop a oa co coe , oopoo ya, o a cey e x a e. Mooe , oopoy eoxo e a oepa ca, ypaae Maca e pooopoa o paoop, a cooa oyey opa ca cpa a pe. Mac, oop copaec ec a eye oao ce cae ocooe aee co copo yyeo ec, o oooc oece cee eacoc. o, ya o pooee, ooae ooe aec ce. Ho a cey e o yee caoc eco, op pocaaa, a oay o oepa ypeey pacceoa, o pe a aop copao aep y ox.
    ContentRating : mpaa|NR|000|
    Video
    ID : 1
    Format : AVC
    Format/Info : Advanced Video Codec
    Format profile : Baseline@L3
    Format settings, CABAC : No
    Format settings, ReFrames : 2 frames
    Format settings, GOP : N=1
    Codec ID : avc1
    Codec ID/Info : Advanced Video Coding
    Duration : 1h 39mn
    Bit rate : 1 450 Kbps
    Maximum bit rate : 8 890 Kbps
    Width : 640 pixels
    Height : 362 pixels
    Display aspect ratio : 2.35:1
    Frame rate mode : Constant
    Frame rate : 24.000 fps
    Color space : YUV
    Chroma subsampling : 4:2:0
    Bit depth : 8 bits
    Scan type : Progressive
    Bits/(Pixel*Frame) : 0.261
    Stream size : 1.01 GiB (84%)
    Title : Overheard 1 _2009_
    Language : Chinese
    Encoded date : UTC 2015-02-19 13:07:52
    Tagged date : UTC 2015-02-19 13:08:14
    Color range : Limited
    Matrix coefficients : BT.709
    Menus : 6, 7
    Audio #1
    ID : 2
    Format : AAC
    Format/Info : Advanced Audio Codec
    Format profile : LC
    Codec ID : 40
    Duration : 1h 39mn
    Bit rate mode : Variable
    Bit rate : 128 Kbps
    Maximum bit rate : 179 Kbps
    Channel(s) : 2 channels
    Channel positions : Front: L R
    Sampling rate : 48.0 KHz
    Frame rate : 46.875 fps (1024 spf)
    Compression mode : Lossy
    Stream size : 91.3 MiB (7%)
    Title : AVO [Y. Serbin]
    Language : Russian
    Default : Yes
    Alternate group : 1
    Encoded date : UTC 2015-02-19 13:01:17
    Tagged date : UTC 2015-02-19 13:08:14
    Audio #2
    ID : 3
    Format : AAC
    Format/Info : Advanced Audio Codec
    Format profile : LC
    Codec ID : 40
    Duration : 1h 39mn
    Bit rate mode : Variable
    Bit rate : 132 Kbps
    Maximum bit rate : 179 Kbps
    Channel(s) : 2 channels
    Channel positions : Front: L R
    Sampling rate : 48.0 KHz
    Frame rate : 46.875 fps (1024 spf)
    Compression mode : Lossy
    Stream size : 95.2 MiB (8%)
    Title : Original
    Language : Chinese
    Default : No
    Alternate group : 1
    Encoded date : UTC 2015-02-19 13:05:17
    Tagged date : UTC 2015-02-19 13:08:14
    Text #1
    ID : 4
    Format : Timed Text
    Muxing mode : sbtl
    Codec ID : tx3g
    Duration : 1h 36mn
    Bit rate mode : Variable
    Bit rate : 94 bps
    Stream size : 66.5 KiB (0%)
    Language : Russian
    Default : Yes
    Forced : No
    Alternate group : 2
    Encoded date : UTC 2015-02-19 13:08:14
    Tagged date : UTC 2015-02-19 13:08:14
    Text #2
    ID : 5
    Format : Timed Text
    Muxing mode : sbtl
    Codec ID : tx3g
    Duration : 1h 34mn
    Bit rate mode : Variable
    Bit rate : 52 bps
    Stream size : 36.3 KiB (0%)
    Language : English
    Default : No
    Forced : No
    Alternate group : 2
    Encoded date : UTC 2015-02-19 13:08:14
    Tagged date : UTC 2015-02-19 13:08:14
    Menu
    ID : 6
    Codec ID : text
    Duration : 1h 39mn
    Language : Chinese
    Encoded date : UTC 2015-02-19 13:08:36
    Tagged date : UTC 2015-02-19 13:08:36
    Menu For : 1
    00:00:00.000 : Chapter 1
    00:07:25.750 : Chapter 2
    00:14:07.875 : Chapter 3
    00:18:44.958 : Chapter 4
    00:23:49.375 : Chapter 5
    00:31:56.042 : Chapter 6
    00:39:37.667 : Chapter 7
    00:47:08.667 : Chapter 8
    00:52:46.083 : Chapter 9
    00:57:58.000 : Chapter 10
    01:04:28.000 : Chapter 11
    01:09:29.333 : Chapter 12
    01:17:50.417 : Chapter 13
    01:23:52.917 : Chapter 14
    01:29:33.875 : Chapter 15
    01:36:25.458 : Chapter 16
    01:43:04.083 : Chapter 17
    01:49:53.958 : Chapter 18
    01:58:28.583 : Chapter 19
    02:06:20.375 : Chapter 20
    Bit rate mode : VBR
    :








    : ./Overheard Trilogy. (2009/2011/2014) HDRip [H.264] [MP4|852x362@640x362]
    ...
     (: 1, 4/5, 1 )

    :

  • 3 / Overheard 3 (2014) HDRip [480p] iPod
  • 2 / Overheard 2 / Sit yan fung wan 2 (2011) HDRip [480p] iPod
  • / Overheard 1 / Sit yan fung wan (2009) HDRip [480p] iPod


    • (0):

        , , .




        ?


        Top 10 ( )