.
Авторизация | Регистрация
Хочешь лучшие торренты? Добавь свой email!
Добавить

Торрент скачать бесплатно

» » А.Р. Аганов. Лекция «Запрещенная химия» (2016) WEBRip [H.264] [MP4|1920х1080] торрент скачать бесплатно




    А.Р. Аганов. Лекция «Запрещенная химия» (2016) WEBRip [H.264] [MP4|1920х1080] торрент скачать бесплатно

    Опубликовал: Админ | Дата: 26-09-2016, 15:02 | Просмотров: 40

    Жанр: Лекция, Документальный
    Ведущий: Никита Белоголовцев
    Лектор: А.Р. Аганов.

    Описание

    Всемирно известный ученый расскажет о том, как современные методы искусственного интеллекта позволяют предсказать новые химические соединения и явления. Вы также узнаете о том, как были открыты новые классы химических соединений, которые запрещены классической химией, но оказываются устойчивыми под давлением и могут существовать в недрах планет, и о сложной и крайне разнообразной химии азота под давлением. А также о многих других, не менее интересных вещах.
    Продолжительность: 02: 09: 40
    Качество видео: WEBRip
    Видео: AVC/H.264, 1920х1080 (16: 9), ~2543 Кбит/сек
    Аудио: AAC, 2 ch, 126 Кбит/сек, CBR
    Код:

    Формат : MPEG-4
    Профиль формата : Base Media
    Идентификатор кодека : isom (isom/iso2/avc1/mp41)
    Размер файла : 2, 42 Гбайт
    Продолжительность : 2 ч. 9 м.
    Общий поток : 2677 Кбит/сек
    Программа кодирования : Lavf56.40.101
    Видео
    Идентификатор : 1
    Формат : AVC
    Формат/Информация : Advanced Video Codec
    Профиль формата : High@L4
    Параметр CABAC формата : Да
    Параметр ReFrames формата : 2 кадра
    Идентификатор кодека : avc1
    Идентификатор кодека/Информация : Advanced Video Coding
    Продолжительность : 2 ч. Самое интересное в это истории, что об этом Ющенко ничего не знал. 9 м.
    Duration_FirstFrame : -33 мс.
    Битрейт : 2543 Кбит/сек
    Ширина : 1920 пикселей
    Высота : 1080 пикселей
    Соотношение сторон : 16:9
    Режим частоты кадров : Переменный
    Частота кадров : 29, 970 кадров/сек
    Минимальная частота кадров : 29, 970 кадров/сек
    Максимальная частота кадров : 29, 990 кадров/сек
    Цветовое пространство : YUV
    Субдискретизация насыщенности : 4:2:0
    Битовая глубина : 8 бит
    Тип развёртки : Прогрессивная
    Бит/(Пиксели*Кадры) : 0.041
    Размер потока : 2, 30 Гбайт (95%)
    Цветовой диапазон : Limited
    Основные цвета : BT.709
    Характеристики трансфера : BT.709
    Коэффициенты матрицы : BT.709
    Аудио
    Идентификатор : 2
    Формат : AAC
    Формат/Информация : Advanced Audio Codec
    Профиль формата : LC
    Идентификатор кодека : 40
    Продолжительность : 2 ч. 9 м.
    Вид битрейта : Постоянный
    Битрейт : 126 Кбит/сек
    Каналы : 2 канала
    Расположение каналов : Front: L R
    Частота : 44, 1 КГц
    Частота кадров : 43, 066 кадра/сек (1024 spf)
    Метод сжатия : С потерями
    Размер потока : 116 Мбайт (5%)
    Default : Да
    Alternate group : 1


    Скриншоты для ознакомления




    А.Р. Аганов. Лекция «Запрещенная химия» (2016) WEBRip [H.264] [MP4|1920х1080]
    загрузка...
    Рейтинг →
     (голосов: 1, оценка 3/5, голосовать можно 1 раз )

    Другие торренты по теме:



      Комментарии (0):

      Информация

      Информация

        Посетители, находящиеся в группе Гости, не могут оставлять комментарии в данной новости.

        ↓ Меню




        ↓ Опрос

        Вы добавили сайт в закладки?
        Да
        Нет


        Top 10 за месяц (КПК и мобильные)