.
Авторизация | Регистрация
Хочешь лучшие торренты? Добавь свой email!
Добавить

Торрент скачать бесплатно

» » Люцифер / Lucifer (2016) WEB-DLRip [H.264] (сезон 2, серии 1 из 13) NewStudio [MP4|1280x718] торрент скачать бесплатно




    Люцифер / Lucifer (2016) WEB-DLRip [H.264] (сезон 2, серии 1 из 13) NewStudio [MP4|1280x718] торрент скачать бесплатно

    Опубликовал: Админ | Дата: 24-09-2016, 04:01 | Просмотров: 23

    Производство: США/Aggressive Mediocrity, DC Entertainment, Jerry Bruckheimer Television
    Жанр: фэнтези
    Режиссер: Нэйтан Хоуп, Лен Уайзман, Майрзи Алмас
    Актеры: Том Эллис, Лорен Джерман, Лесли-Энн Брандт, Кевин Алехандро, Рэйчел Харрис, Д.Б. Вудсайд, Скарлет Эстевез, Локлин Манро, Ивэн Арнольд, Эмили Мэддисон и др.

    Описание

    Заскучавший и несчастный повелитель преисподней, Люцифер Морнингстар оставил свой престол и отправился в современный Лос-Анджелес, где основал ночной клуб Lux. Белая горячка, сказал кто то из толпы, к чему не понятно. Очаровательный, харизматичный и дьявольски привлекательный Люцифер наслаждается своим отдыхом — вином, женщинами и музыкой — пока красивая поп-звезда не оказывается убитой на пороге его клуба…

    Возраст: 18+ (зрителям, достигшим 18 лет. запрещено для детей)
    Продолжительность: ~00: 43: 00 серия
    Качество видео: WEB-DLRip
    Перевод: Многоголосый закадровый, профессиональный -NewStudio
    Автор перевода: Юлия Мейер
    Реклама: присутствуют голосовые вставки рекламы
    Видео: AVC/H.264 (High@L3.1 ), 1280x718 (16: 9), ~4070 Кбит/сек
    Аудио: AAC, 2 канала, 192 Кбит/сек - русский (многоголосый закадровый)
    Код:

    Полное имя : E:Lucifer_s2_WEB-DL720p_x264_NewStudio_[NNMClub]Lucifer.s02e01.WEB-DLRip.720p.NewStudio.mp4
    Формат : MPEG-4
    Профиль формата : Base Media
    Идентификатор кодека : isom (isom/iso2/avc1/mp41)
    Размер файла : 1, 31 Гбайт
    Продолжительность : 43 м.
    Общий поток : 4268 Кбит/сек
    Программа кодирования : XviD4PSP 7.0.129
    Видео
    Идентификатор : 1
    Формат : AVC
    Формат/Информация : Advanced Video Codec
    Профиль формата :High@L3.1
    Параметр CABAC формата : Нет
    Параметр ReFrames формата : 2 кадра
    Идентификатор кодека : avc1
    Идентификатор кодека/Информация : Advanced Video Coding
    Продолжительность : 43 м.
    Битрейт : 4070 Кбит/сек
    Ширина : 1280 пикселей
    Высота : 718 пикселей
    Соотношение сторон : 16:9
    Режим частоты кадров : Постоянный
    Частота кадров : 23, 976 (24000/1001) кадра/сек
    Цветовое пространство : YUV
    Субдискретизация насыщенности : 4:2:0
    Битовая глубина : 8 бит
    Тип развёртки : Прогрессивная
    Бит/(Пиксели*Кадры) : 0.185
    Размер потока : 1, 25 Гбайт (95%)
    Язык : English
    Цветовой диапазон : Limited
    Основные цвета : BT.709
    Характеристики трансфера : BT.709
    Коэффициенты матрицы : BT.709
    Аудио
    Идентификатор : 2
    Формат : AAC
    Формат/Информация : Advanced Audio Codec
    Профиль формата : LC
    Идентификатор кодека : 40
    Продолжительность : 43 м.
    Вид битрейта : Постоянный
    Битрейт : 192 Кбит/сек
    Каналы : 2 канала
    Расположение каналов : Front: L R
    Частота : 48, 0 КГц
    Частота кадров : 46, 875 кадров/сек (1024 spf)
    Метод сжатия : С потерями
    Размер потока : 60, 3 Мбайт (4%)
    Заголовок : NewStudio.TV/NewStudio.TV
    Язык : Russian
    Default : Да
    Alternate group : 1


    Скриншоты для ознакомления




    Люцифер/Lucifer (2016) WEB-DLRip [H.264] (сезон 2, серии 1 из 13) NewStudio [MP4|1280x718]
    загрузка...
    Рейтинг →
     (голосов: 1, оценка 5/5, голосовать можно 1 раз )

    Другие торренты по теме:

  • Люцифер / Lucifer (2015) HDTV [H.264 / 720p-LQ] (сезон 1, серия 1 из ) [EN / RU, EN Sub] скачать через торрент бесплатно
  • Люцифер / Lucifer (2015) HDTV [H.264 / 1080p] (сезон 1, серии 1 из ) NewStudio (обновляемая) скачать через торрент бесплатно
  • Люцифер / Lucifer (2015) HDTVRip (сезон 1, серия 1 из ) (NewStudio) (обновляемая) скачать через торрент бесплатно
  • Люцифер / Lucifer (2015) HDTV [H.264 / 720p-LQ] (сезон 1, серия 1 из ) (NewStudio) (обновляемая) скачать через торрент бесплатно
  • Люцифер / Lucifer (2015) WEB-DLRip (сезон 1, серия 1 из 13) Alternative Production (обновляемая) скачать через торрент бесплатно
  • Люцифер / Lucifer (2016) WEB-DL [H.264 / 720p-LQ] (сезон 1, серии 1 из 13) BaibaKo (обновляемая)
  • Люцифер / Lucifer (2015) WEB-DLRip (сезон 1, серии 1 из 13) BaibaKo (обновляемая)
  • Люцифер / Lucifer (2016) WEB-DLRip [H.264] (сезон 1, серии 1 из 13) BaibaKo [MP4|720x400]


    • Комментарии (0):

      Информация

      Информация

        Посетители, находящиеся в группе Гости, не могут оставлять комментарии в данной новости.

        ↓ Меню




        ↓ Опрос

        Вы добавили сайт в закладки?
        Да
        Нет


        Top 10 за месяц (КПК и мобильные)