.
Авторизация | Регистрация
Хочешь лучшие торренты? Добавь свой email!
Добавить

Торрент скачать бесплатно

» » Ниндзяго: Мастера Кружитцу / Ninjago: Masters of Spinjitzu (2015) WEB-DLRip [H.264] (сезон 4, серии 1-10 из 10) [MP4|1024x576] торрент скачать бесплатно




    Ниндзяго: Мастера Кружитцу / Ninjago: Masters of Spinjitzu (2015) WEB-DLRip [H.264] (сезон 4, серии 1-10 из 10) [MP4|1024x576] торрент скачать бесплатно

    Опубликовал: Админ | Дата: 22-09-2016, 04:00 | Просмотров: 151

    Производство: Дания, Сингапур, Канада, США, Wil Film, LEGO
    Жанр: Аниме, Мультфильм, Фантастика, Боевик, Семейный
    Режиссер: Петер Хауснер, Майкл Хельмут Хансен, Трюлле Вильструп
    Актеры: Винсент Тонг, Джиллиан Майклс, Джон Новак, Йен Джеймс Корлетт, Пол Добсон, Майкл Адамуэйт, Келли Мецгер, Брент Миллер, Кирби Морроу, Брайан Драммонд

    Описание

    Уединенный странник встречает Кая, молодого кузнеца мечей, и его сестру Нию, в их небольшой деревне, перед тем, как туда прибывает армия ужасающих скелетов, намеренная разграбить их лавку. Злодеи крадут карту, спрятанную отцом Кая несколько лет назад, а также Нию! Теперь Каю предстоит преодолеть нелегкий путь, прежде чем он сможет освободить свою сестру, и поможет ему в этом, его новый загаданный друг, Сенсей Ву Гармадон.

    Возраст: 12+ (зрителям, достигшим 12 лет)
    Продолжительность: ~ 00: 22: 00
    Качество видео: WEB-DLRip
    Перевод: Дублированный
    Вид субтитров: Вшитые отключаемые
    Язык субтитров: Английский
    Видео: AVC/H.264 (Main@L3.1 ), 1024x576 (16: 9), 1800 Кбит/сек
    Аудио #1: AAC, 2 канала, 128 Кбит/сек - русский (дублированный)
    Аудио #2: AAC, 2 канала, 128 Кбит/сек - английский
    Код:

    General
    Complete name : C:CREATE264mod1out1LEGO.NINJAGO Masters.of.Spinjitzu.S04E01.The.Invitation.576p.WEBDLRip.AAC.x264.NNMclub.mp4
    Format : MPEG-4
    Format profile : Base Media/Version 2
    Codec ID : mp42 (mp42/isom)
    File size : 344 MiB
    Duration : 22mn 58s
    Overall bit rate mode : Variable
    Overall bit rate : 2 095 Kbps
    Collection : LEGO Ninjago: Masters of Spinjitzu
    Season : 4
    Album : LEGO Ninjago: Masters of Spinjitzu, Season 4
    Album/Performer : LEGO Ninjago: Masters of Spinjitzu
    Part : 1
    Part/Position : 1
    Part/Total : 1
    Track name : The Invitation
    Track name/Position : 1
    Track name/Total : 10
    Performer : LEGO Ninjago: Masters of Spinjitzu
    Genre : Kids
    ContentType : TV Show
    Description : When the Ninja receive an invitation to partake in the Tournament of Elements and a clue that Zane/Loss is a powerful thing. The loss of Zane in the battle against the Overlord has fractured and disassembled our favorite Ninja team. But when they receive a mysterious invitation to an unrecorded island for Master Chen’s ‘Tournament of Elements’, they get wind that their friend could still be alive, and in order to get him back, they’ll not only have to face others gifted with unique elemental powers, but eventually battle each other.
    Recorded date : 2015-02-23
    Encoded date : UTC 2016-09-20 15:41:21
    Tagged date : UTC 2016-09-20 15:46:10
    Cover : Yes
    Rating : None
    Part_ID : 401
    LongDescription : When the Ninja receive an invitation to partake in the Tournament of Elements and a clue that Zane might be alive, they accept and travel to a Lost Island owned by notorious crime lord Master Chen in order to save their friend.
    AppleStoreCountry : United States
    AppleStoreCatalogID : 970187560
    AlbumTitleID : 529582119
    PlayListID : 962545548
    ContentRating : mpaa|Unrated|???|
    Video
    ID : 1
    Format : AVC
    Format/Info : Advanced Video Codec
    Format profile :Main@L3.1
    Format settings, CABAC : No
    Format settings, ReFrames : 3 frames
    Codec ID : avc1
    Codec ID/Info : Advanced Video Coding
    Duration : 22mn 58s
    Bit rate : 1 800 Kbps
    Width : 1 024 pixels
    Height : 576 pixels
    Display aspect ratio : 16:9
    Frame rate mode : Variable
    Frame rate : 23.976 (24000/1001) fps
    Minimum frame rate : 23.810 fps
    Maximum frame rate : 24.390 fps
    Color space : YUV
    Chroma subsampling : 4:2:0
    Bit depth : 8 bits
    Scan type : Progressive
    Bits/(Pixel*Frame) : 0.127
    Stream size : 296 MiB (86%)
    Writing library : x264 core 148 r2705+54 9f484c1 t_mod_Custom [8-bit@all X86]
    Encoding settings : cabac=0/ref=3/deblock=1:-1:-1/analyse=0x1:0x131/me=umh/subme=7/psy=1/fade_compensate=0.00/psy_rd=0.60:0.05/mixed_ref=0/me_range=32/chroma_me=1/trellis=2/8x8dct=0/cqm=0/deadzone=21, 11/fast_pskip=0/chroma_qp_offset=-3/threads=18/lookahead_threads=3/sliced_threads=0/nr=0/decimate=0/interlaced=0/bluray_compat=0/constrained_intra=0/fgo=0/bframes=3/b_pyramid=1/b_adapt=2/b_bias=0/direct=3/weightb=1/open_gop=0/weightp=2/keyint=240/keyint_min=23/scenecut=35/intra_refresh=0/rc_lookahead=50/rc=2pass/mbtree=1/bitrate=1800/ratetol=1.0/qcomp=0.60/qpmin=0:0:0/qpmax=69:69:69/qpstep=4/cplxblur=20.0/qblur=0.5/vbv_maxrate=14000/vbv_bufsize=14000/nal_hrd=none/filler=0/ip_ratio=1.40/aq=3:0.60/aq-sensitivity=10.00/aq-factor=1.00:1.00:1.00/aq2=1:0.60/aq2-sensitivity=10.00/aq2-factor=1.00:1.00:1.00/aq3=4:[0.50:0.50]:[0.50:0.50]:[0.50:0.50]:[0.50:0.50]/aq3-sensitivity=10.00/aq3-factor=[1.00:1.00]:[1.00:1.00]:[1.00:1.00]/aq3-boundary=192:64:24
    Encoded date : UTC 2016-09-20 15:41:21
    Tagged date : UTC 2016-09-20 15:42:25
    Color range : Limited
    Matrix coefficients : BT.709
    Audio #1
    ID : 2
    Format : AAC
    Format/Info : Advanced Audio Codec
    Format profile : LC
    Codec ID : 40
    Duration : 22mn 58s
    Source duration : 22mn 58s
    Bit rate mode : Variable
    Bit rate : 128 Kbps
    Maximum bit rate : 132 Kbps
    Channel(s) : 2 channels
    Channel positions : Front: L R
    Sampling rate : 48.0 KHz
    Frame rate : 46.875 fps (1024 spf)
    Compression mode : Lossy
    Stream size : 21.0 MiB (6%)
    Source stream size : 21.0 MiB (6%)
    Language : Russian
    Default : Yes
    Alternate group : 1
    Encoded date : UTC 2016-09-20 15:41:21
    Tagged date : UTC 2016-09-20 15:42:25
    Audio #2
    ID : 3
    Format : AAC
    Format/Info : Advanced Audio Codec
    Format profile : LC
    Codec ID : 40
    Duration : 22mn 58s
    Bit rate mode : Variable
    Bit rate : 157 Kbps
    Maximum bit rate : 233 Kbps
    Channel(s) : 2 channels
    Channel positions : Front: L R
    Sampling rate : 48.0 KHz
    Frame rate : 46.875 fps (1024 spf)
    Compression mode : Lossy
    Stream size : 25.9 MiB (8%)
    Language : English
    Default : No
    Alternate group : 1
    Encoded date : UTC 2016-09-20 15:41:21
    Tagged date : UTC 2016-09-20 15:42:25
    Text
    ID : 4
    Format : Timed Text
    Muxing mode : sbtl
    Codec ID : tx3g
    Duration : 22mn 55s
    Bit rate mode : Variable
    Bit rate : 78 bps
    Stream size : 13.2 KiB (0%)
    Language : English
    Default : Yes
    Forced : No
    Alternate group : 2
    Encoded date : UTC 2016-09-20 15:41:21
    Tagged date : UTC 2016-09-20 15:42:25


    Скриншоты для ознакомления




    Ниндзяго: Мастера Кружитцу/Ninjago: Masters of Spinjitzu (2015) WEB-DLRip [H.264] (сезон 4, серии 1-10 из 10) [MP4|1024x576]
    загрузка...
    Рейтинг →
     (голосов: 1, оценка 5/5, голосовать можно 1 раз )

    Другие торренты по теме:

  • LEGO Ниндзяго: Мастера кружитцу / LEGO Ninjago: Masters of Spinjitzu (2012) WEB-DL [720p] (Сезон: 2, Серии: 1-13 из 13) скачать через торрент бесплатно
  • LEGO Ниндзяго: Мастера кружитцу / LEGO Ninjago: Masters of Spinjitzu (2011-2012) WEB-DL [1080p] (Сезон: 1, Серии: 1-13 из 13) скачать через торрент бесплатно
  • Лего Ніндзяго: Майстри Спінжитсу / LEGO Ниндзяго: Мастера кружитцу / LEGO Ninjago: Masters of Spinjitzu (2011-2015) WEB-DLRip [720p] (Сезон 0-5) [Ukr,Eng]
  • LEGO Ниндзяго: Мастера кружитцу / LEGO Ninjago: Masters of Spinjitzu (2016) SATRip [H.264] (Сезон 6, серии 10 из 10) [UKR]
  • Ниндзяго: Мастера Кружитцу / Ninjago: Masters of Spinjitzu (2011-2012) WEB-DLRip [H.264] (сезон 1, серии 1-15 из 15) [MP4|1024x576]
  • Ниндзяго: Мастера Кружитцу / Ninjago: Masters of Spinjitzu (2013-2014) WEB-DLRip [H.264] (сезон 3, серии 1-8 из 8)
  • Ниндзяго: Мастера Кружитцу / Ninjago: Masters of Spinjitzu (2012) HDRip [H.264] (сезон 2, серии 1-13 из 13)
  • Ниндзяго: Мастера Кружитцу / Ninjago: Masters of Spinjitzu (2011-2012) WEB-DLRip [H.264] (сезон 1, серии 1-15 из 15)


    • Комментарии (0):

      Информация

      Информация

        Посетители, находящиеся в группе Гости, не могут оставлять комментарии в данной новости.

        ↓ Меню




        ↓ Опрос

        Вы добавили сайт в закладки?
        Да
        Нет


        Top 10 за месяц (КПК и мобильные)