.
Авторизация | Регистрация
Хочешь лучшие торренты? Добавь свой email!
Добавить

Торрент скачать бесплатно

» » Аниматрица / The Animatrix / Animatorikkusu (2003) BDRip [H.264] (сезон 1, серии 1-9 из 9) R5 / Премьер Видео Фильм, П. Гланц, И. Королёва / С.Р.И. [MP4|1024x428] торрент скачать бесплатно




    Аниматрица / The Animatrix / Animatorikkusu (2003) BDRip [H.264] (сезон 1, серии 1-9 из 9) R5 / Премьер Видео Фильм, П. Гланц, И. Королёва / С.Р.И. [MP4|1024x428] торрент скачать бесплатно

    Опубликовал: Админ | Дата: 17-09-2016, 04:01 | Просмотров: 27

    Производство: США, DNA Productions, Madhouse, Silver Pictures
    Жанр: Аниме, Мультфильм, Фантастика, Боевик, Драма
    Режиссер: Энди Джонс, Махиро Маэда, Синичиро Ватанабе, Ёсиаки Кавадзири, Такеси Койке, Коджи Моримото, Питер Чунг
    Актеры: Акио Ютсука, Клэйтон Уотсон, Памела Адлон, Хеди Барресс, Терренс Т.К. Карсон, Мелинда Кларк, Оливия д’Або, Дэйн А. Дэвис, Уильям Р. Дин, Джон ДеМита

    Описание

    Добро пожаловать в Аниматрицу - визуальную феерию изумительной компьютерной графики и японского аниме! Вам предстоит увидеть девять поразительных картин от всемирно известных мастеров аниме. Вас ждет приквел Матрицы, где Вы узнаете предысторию возникновения нового иллюзорного мира, побываете в последних городах рода человеческого, а также станете свидетелями глобальной войны людей с машинами, войны, которая закончилась гибелью цивилизации.
    Насладитесь Последним полетом Осириса, который стал основой блокбастера Матрица: Перезагрузка и видеоигры Войди в Матрицу. У Вас появилась уникальная возможность проникнуть в историческую эпоху, закончившуюся созданием новой синтетической эры Матрицы. Большая шишка, сказал кто то из толпы, к чему не понятно. Подключайтесь!

    Возраст: 12+ (зрителям, достигшим 12 лет)
    Рейтинг MPAA: PG-13 (детям до 13 лет просмотр нежелателен)
    Продолжительность: 00: 11: 26 | 00: 11: 16 | 00: 11: 25 | 00: 11: 25 | 00: 09: 02 | 00: 10: 41 | 00: 15: 00 | 00: 11: 43 | 00: 18: 04
    Качество видео: BDRip
    Перевод: Многоголосый закадровый(R5/Премьер Видео Фильм) , Двуголосый закадровый(П. Гланц, И. Королёва/С.Р.И.)
    Вид субтитров: Вшитые отключаемые
    Язык субтитров: Русский, Английский
    Видео: AVC/H.264 (Main@L3.1 ), 1024x428 (2.40: 1), 1800 Кбит/сек
    Аудио #1: AAC, 2 канала, 128 Кбит/сек - русский (многоголосый закадровый)
    Аудио #2: AAC, 2 канала, 128 Кбит/сек - русский (двуголосый закадровый)
    Аудио #3: AAC, 2 канала, 128 Кбит/сек - японский (дублированный)
    Аудио #4: AAC, 2 канала, 128 Кбит/сек - английский
    Код:

    General
    Complete name : C:CREATE264mod1out1The Animatrix.2003.S01E04_KID\'S_STORY.576p.BDRip.AAC.x264.NNMclub.mp4
    Format : MPEG-4
    Format profile : Base Media/Version 2
    Codec ID : mp42 (mp42/isom)
    File size : 190 MiB
    Duration : 11mn 25s
    Overall bit rate mode : Variable
    Overall bit rate : 2 323 Kbps
    Collection : The Animatrix
    Season : 1
    Album : The Animatrix, Season 1
    Album/Performer : The Animatrix
    Part : 4
    Track name : Kid\'s Story
    Track name/Position : 4
    Performer : The Animatrix
    Director : Shinichirô Watanabe
    Actor : Clayton Watson/John DeMita/Carrie-Anne Moss/Киану Ривз/Kevin Michael Richardson/James Arnold Taylor
    Screenplay by : Andy Wachowski/Lana Wachowski
    Genre : Action, Animation, Drama, Science-Fiction
    ContentType : TV Show
    Description : A teenager is contacted by Neo, and manages to escape the Matrix./Straight from the creators of the groundbreaking Matrix trilogy, this collection of short animated films from the world\'s leading anime directors fuses computer graphics and Japanese anime to provide the background of the Matrix universe and the conflict between man and machines.
    Recorded date : 2003-06-03
    Encoded date : UTC 2016-09-16 06:55:27
    Tagged date : UTC 2016-09-16 06:57:28
    Cover : Yes
    Rating : None
    TVNetworkName : Adult Swim
    Part_ID : 104
    LongDescription : A teenager is contacted by Neo, and manages to escape the Matrix.
    ContentRating : us-tv|TV-14|500|
    Video
    ID : 1
    Format : AVC
    Format/Info : Advanced Video Codec
    Format profile :Main@L3.1
    Format settings, CABAC : No
    Format settings, ReFrames : 3 frames
    Codec ID : avc1
    Codec ID/Info : Advanced Video Coding
    Duration : 11mn 25s
    Bit rate : 1 800 Kbps
    Width : 1 024 pixels
    Height : 428 pixels
    Display aspect ratio : 2.40:1
    Frame rate mode : Variable
    Frame rate : 23.976 (24000/1001) fps
    Minimum frame rate : 23.810 fps
    Maximum frame rate : 24.390 fps
    Color space : YUV
    Chroma subsampling : 4:2:0
    Bit depth : 8 bits
    Scan type : Progressive
    Bits/(Pixel*Frame) : 0.171
    Stream size : 147 MiB (77%)
    Writing library : x264 core 148 r2705+54 9f484c1 t_mod_Custom [8-bit@all X86]
    Encoding settings : cabac=0/ref=3/deblock=1:-1:-1/analyse=0x1:0x111/me=umh/subme=7/psy=1/fade_compensate=0.00/psy_rd=0.60:0.05/mixed_ref=0/me_range=32/chroma_me=1/trellis=2/8x8dct=0/cqm=0/deadzone=21, 11/fast_pskip=0/chroma_qp_offset=-3/threads=13/lookahead_threads=2/sliced_threads=0/nr=0/decimate=0/interlaced=0/bluray_compat=0/constrained_intra=0/fgo=0/bframes=3/b_pyramid=1/b_adapt=2/b_bias=0/direct=3/weightb=1/open_gop=0/weightp=2/keyint=240/keyint_min=23/scenecut=35/intra_refresh=0/rc_lookahead=50/rc=2pass/mbtree=1/bitrate=1800/ratetol=1.0/qcomp=0.60/qpmin=0:0:0/qpmax=69:69:69/qpstep=4/cplxblur=20.0/qblur=0.5/vbv_maxrate=14000/vbv_bufsize=14000/nal_hrd=none/filler=0/ip_ratio=1.40/aq=2:0.70/aq-sensitivity=10.00/aq-factor=1.00:1.00:1.00/aq2=1:0.60/aq2-sensitivity=13.00/aq2-factor=1.00:1.00:1.00/aq3=4:[0.50:0.50]:[0.50:0.50]:[0.50:0.50]:[0.60:0.60]/aq3-sensitivity=10.00/aq3-factor=[1.00:1.00]:[1.00:1.00]:[1.00:1.00]/aq3-boundary=192:64:24/zones=282, 944, b=1.5/282, 944, fgo=5/10903, 11511, b=1.5/10903, 11511, fgo=5
    Encoded date : UTC 2016-09-16 06:55:27
    Tagged date : UTC 2016-09-16 06:57:08
    Color range : Limited
    Matrix coefficients : BT.709
    Menus : 8
    Audio #1
    ID : 2
    Format : AAC
    Format/Info : Advanced Audio Codec
    Format profile : LC
    Codec ID : 40
    Duration : 11mn 25s
    Source duration : 11mn 25s
    Bit rate mode : Variable
    Bit rate : 128 Kbps
    Maximum bit rate : 130 Kbps
    Channel(s) : 2 channels
    Channel positions : Front: L R
    Sampling rate : 48.0 KHz
    Frame rate : 46.875 fps (1024 spf)
    Compression mode : Lossy
    Stream size : 10.5 MiB (6%)
    Source stream size : 10.5 MiB (6%)
    Language : Russian
    Default : Yes
    Alternate group : 1
    Encoded date : UTC 2016-09-16 06:55:27
    Tagged date : UTC 2016-09-16 06:57:08
    Audio #2
    ID : 3
    Format : AAC
    Format/Info : Advanced Audio Codec
    Format profile : LC
    Codec ID : 40
    Duration : 11mn 25s
    Source duration : 11mn 25s
    Bit rate mode : Variable
    Bit rate : 128 Kbps
    Maximum bit rate : 132 Kbps
    Channel(s) : 2 channels
    Channel positions : Front: L R
    Sampling rate : 48.0 KHz
    Frame rate : 46.875 fps (1024 spf)
    Compression mode : Lossy
    Stream size : 10.5 MiB (6%)
    Source stream size : 10.5 MiB (6%)
    Language : Russian
    Default : No
    Alternate group : 1
    Encoded date : UTC 2016-09-16 06:55:27
    Tagged date : UTC 2016-09-16 06:57:08
    Audio #3
    ID : 4
    Format : AAC
    Format/Info : Advanced Audio Codec
    Format profile : LC
    Codec ID : 40
    Duration : 11mn 25s
    Source duration : 11mn 25s
    Bit rate mode : Variable
    Bit rate : 128 Kbps
    Maximum bit rate : 132 Kbps
    Channel(s) : 2 channels
    Channel positions : Front: L R
    Sampling rate : 48.0 KHz
    Frame rate : 46.875 fps (1024 spf)
    Compression mode : Lossy
    Stream size : 10.5 MiB (6%)
    Source stream size : 10.5 MiB (6%)
    Language : Japanese
    Default : No
    Alternate group : 1
    Encoded date : UTC 2016-09-16 06:55:27
    Tagged date : UTC 2016-09-16 06:57:08
    Audio #4
    ID : 5
    Format : AAC
    Format/Info : Advanced Audio Codec
    Format profile : LC
    Codec ID : 40
    Duration : 11mn 25s
    Source duration : 11mn 25s
    Bit rate mode : Variable
    Bit rate : 128 Kbps
    Maximum bit rate : 131 Kbps
    Channel(s) : 2 channels
    Channel positions : Front: L R
    Sampling rate : 48.0 KHz
    Frame rate : 46.875 fps (1024 spf)
    Compression mode : Lossy
    Stream size : 10.5 MiB (6%)
    Source stream size : 10.5 MiB (6%)
    Language : English
    Default : No
    Alternate group : 1
    Encoded date : UTC 2016-09-16 06:55:27
    Tagged date : UTC 2016-09-16 06:57:08
    Text #1
    ID : 6
    Format : Timed Text
    Muxing mode : sbtl
    Codec ID : tx3g
    Duration : 9mn 35s
    Bit rate mode : Variable
    Bit rate : 39 bps
    Stream size : 2.73 KiB (0%)
    Language : Russian
    Default : Yes
    Forced : No
    Alternate group : 2
    Encoded date : UTC 2016-09-16 06:55:27
    Tagged date : UTC 2016-09-16 06:57:08
    Text #2
    ID : 7
    Format : Timed Text
    Muxing mode : sbtl
    Codec ID : tx3g
    Duration : 9mn 20s
    Bit rate mode : Variable
    Bit rate : 22 bps
    Stream size : 1.48 KiB (0%)
    Language : English
    Default : No
    Forced : No
    Alternate group : 2
    Encoded date : UTC 2016-09-16 06:55:27
    Tagged date : UTC 2016-09-16 06:57:08
    Menu
    ID : 8
    Codec ID : text
    Duration : 11mn 25s
    Language : English
    Encoded date : UTC 2016-09-16 06:57:09
    Tagged date : UTC 2016-09-16 06:57:09
    Bit rate mode : CBR
    Menu For : 1
    Duration_FirstFrame : 471427
    00:00:00.000 : Chapter 1
    00:09:38.618 : Chapter 2


    Скриншоты для ознакомления




    Аниматрица/The Animatrix/Animatorikkusu (2003) BDRip [H.264] (сезон 1, серии 1-9 из 9) R5/Премьер Видео Фильм, П. Гланц, И. Королёва/С.Р.И. [MP4|1024x428]
    загрузка...
    Рейтинг →
     (голосов: 1, оценка 3/5, голосовать можно 1 раз )

    Другие торренты по теме:



      Комментарии (0):

      Информация

      Информация

        Посетители, находящиеся в группе Гости, не могут оставлять комментарии в данной новости.

        ↓ Меню




        ↓ Опрос

        Вы добавили сайт в закладки?
        Да
        Нет


        Top 10 за месяц (КПК и мобильные)