.
Авторизация | Регистрация
Хочешь лучшие торренты? Добавь свой email!
Добавить

Торрент скачать бесплатно

» » Л.М. Зелёный. Лекция «Второе открытие седьмого континента. Исследования Луны: вчера-сегодня-завтра» (2014) WEBRip [H.264] [MP4|1920х1080] торрент скачать бесплатно




    Л.М. Зелёный. Лекция «Второе открытие седьмого континента. Исследования Луны: вчера-сегодня-завтра» (2014) WEBRip [H.264] [MP4|1920х1080] торрент скачать бесплатно

    Опубликовал: Админ | Дата: 16-09-2016, 04:00 | Просмотров: 47

    Жанр: Лекция, Документальный
    Ведущий: Л.М. Зелёный

    Описание

    В Большом звёздном зале состоялась Трибуна учёного на тему Второе открытие седьмого континента. Исследования Луны: Вчера. Сегодня. Завтра, которую провёл Лев Матвеевич Зеленый — академик РАН, доктор физико-математических наук, профессор, директор Института космических исследований РАН, вице-президент РАН.
    Продолжительность: 01: 35: 14
    Качество видео: WEBRip
    Видео: AVC/H.264, 1920х1080 (16: 9), ~884 Кбит/сек
    Аудио: AAC, 2 ch, 126 Кбит/сек, VBR
    Код:

    Формат : MPEG-4
    Профиль формата : Base Media
    Идентификатор кодека : isom (isom/iso2/avc1/mp41)
    Размер файла : 690 Мбайт
    Продолжительность : 1 ч. 35 м.
    Режим общего битрейта : Переменный
    Общий поток : 1013 Кбит/сек
    Дата кодирования : UTC 2015-01-16 10:00:19
    Дата пометки : UTC 2015-01-16 10:00:19
    Видео
    Идентификатор : 1
    Формат : AVC
    Формат/Информация : Advanced Video Codec
    Профиль формата : High@L4
    Параметр CABAC формата : Да
    Параметр ReFrames формата : 3 кадра
    Идентификатор кодека : avc1
    Идентификатор кодека/Информация : Advanced Video Coding
    Продолжительность : 1 ч. 35 м.
    Битрейт : 884 Кбит/сек
    Ширина : 1920 пикселей
    Высота : 1080 пикселей
    Соотношение сторон : 16:9
    Режим частоты кадров : Постоянный
    Частота кадров : 25, 000 кадров/сек
    Цветовое пространство : YUV
    Субдискретизация насыщенности : 4:2:0
    Битовая глубина : 8 бит
    Тип развёртки : Прогрессивная
    Бит/(Пиксели*Кадры) : 0.017
    Размер потока : 602 Мбайт (87%)
    Дата кодирования : UTC 2015-01-16 10:00:19
    Дата пометки : UTC 2015-01-16 10:00:19
    Аудио
    Идентификатор : 2
    Формат : AAC
    Формат/Информация : Advanced Audio Codec
    Профиль формата : LC
    Идентификатор кодека : 40
    Продолжительность : 1 ч. Бесплатный сыр, сказал кто то из толпы, к чему не понятно. 35 м.
    Вид битрейта : Переменный
    Битрейт : 126 Кбит/сек
    Каналы : 2 канала
    Расположение каналов : Front: L R
    Частота : 44, 1 КГц
    Частота кадров : 43, 066 кадра/сек (1024 spf)
    Метод сжатия : С потерями
    Размер потока : 85, 6 Мбайт (12%)
    Default : Да
    Alternate group : 1
    Скриншоты:


    Время раздачи: по возможности (до появления первых 3-5 скачавших)

    Л.М. Зелёный. Лекция «Второе открытие седьмого континента. Исследования Луны: вчера-сегодня-завтра» (2014) WEBRip [H.264] [MP4|1920х1080]
    загрузка...
    Рейтинг →
     (голосов: 1, оценка 4/5, голосовать можно 1 раз )

    Другие торренты по теме:

  • Зелёный огонёк (1964) IPTVRip
  • Зелёный змий (1962) SATRip скачать через торрент бесплатно
  • Штора (Типси тип и Zambezi) - Зелёный (2015) EP [MP3|320 кб / с]<Rap> скачать через торрент бесплатно
  • Зелёный Шершень / The Green Hornet (2011) BDRip
  • Зелёный кот | Midori no Neko | The Green Cat [1983, OVA, 1 эп.] DVDrip 480p raw
  • П.В. Зелёный, Е.И. Белякова | Инженерная графика. Практикум по проекционному черчению (2013) [PDF]
  • Зелёный лучник / Der grüne Bogenschütze (1961) SATRip
  • Георгий Юдин | Зелёный поросёнок (1994) [FB2]


    • Комментарии (0):

      Информация

      Информация

        Посетители, находящиеся в группе Гости, не могут оставлять комментарии в данной новости.

        ↓ Меню




        ↓ Опрос

        Вы добавили сайт в закладки?
        Да
        Нет


        Top 10 за месяц (КПК и мобильные)