.
Авторизация | Регистрация
Хочешь лучшие торренты? Добавь свой email!
Добавить

Торрент скачать бесплатно

» » Матрица: Трилогия / Matrix. Triple Feature (1999-2003) HDRip [H.264] Дубляж, Гланц и Королева [MP4|1024x428] торрент скачать бесплатно




    Матрица: Трилогия / Matrix. Triple Feature (1999-2003) HDRip [H.264] Дубляж, Гланц и Королева [MP4|1024x428] торрент скачать бесплатно

    Опубликовал: Админ | Дата: 16-09-2016, 04:00 | Просмотров: 45

    Производство: США, Warner Bros., Village Roadshow Pictures, Groucho II Film Partnership
    Жанр: Фантастика, Боевик, Триллер
    Режиссер: Энди Вачовски, Ларри Вачовски
    Актеры: Кеану Ривз, Лоуренс Фишборн, Кэрри-Энн Мосс, Хьюго Уивинг, Глория Фостер, Джо Пантолиано, Маркус Чонг, Джулиан Араханга, Мэтт Доран, Белинда МакКлори
    Опиcание:
    Жизнь Томаса Андерсона разделена на две части: днём он самый обычный офисный работник, получающий нагоняи от начальства, а ночью превращается в хакера по имени Нео, и нет места в сети, куда он не смог бы дотянуться. Но однажды всё меняется — герой, сам того не желая, узнаёт страшную правду: всё, что его окружает — не более, чем иллюзия, Матрица, а люди — всего лишь источник питания для искусственного интеллекта, поработившего человечество. И только Нео под силу изменить расстановку сил в этом ставшем вдруг чужим и страшным мире.

    Возраст: 16+ (зрителям, достигшим 16 лет)
    Рейтинг MPAA: R (лицам до 17 лет обязательно присутствие взрослого)
    Продолжительноcть: 02: 16: 17
    Качество видео: HDRip
    Перевод: Дублированный , Двуголосый закадровый(Гланц и Королева)
    Вид субтитров: Вшитые отключаемые
    Язык субтитров: Русский, Английский
    Видео: AVC/H.264 (Main@L3.1 ), 1024x428 (2.39: 1), 2050 Кбит/сек
    Аудио #1: AAC, 2 канала, 128 Кбит/сек - русский (дублированный)
    Аудио #2: AAC, 2 канала, 128 Кбит/сек - русский (двуголосый закадровый)
    Аудио #3: AAC, 2 канала, 128 Кбит/сек - английский
    Код:

    General
    Complete name : C:CREATE264mod1out1The.MATRIX.1999.576p.BDRip.AAC.x264.NNMclub.mp4
    Format : MPEG-4
    Format profile : Base Media/Version 2
    Codec ID : mp42 (mp42/isom)
    File size : 2.33 GiB
    Duration : 2h 16mn
    Overall bit rate mode : Variable
    Overall bit rate : 2 444 Kbps
    Movie name : The Matrix
    Performer : Larry Wachowski, Andy Wachowski
    Director : Larry Wachowski/Andy Wachowski
    Actor : Keanu Reeves/Laurence Fishburne/Carrie-Anne Moss/Hugo Weaving/Gloria Foster/Joe Pantoliano
    Screenplay by : Andy Wachowski/Larry Wachowski
    Producer : Joel Silver
    Genre : Sci-Fi Fantasy
    ContentType : Short Film
    Description : Breaking box office records as the biggest Easter opening ever, this special effects-driven tale follows Keanu Reeves (Speed, Devil\'s Advocate) and Oscar, Golden Globe and Emmy-nominee Laurence Fishburne (What\'s Love Got to Do with It?) on an explosive futuristic sci-fi adventure about a man who comes to believe that his everyday world is the product of a complex computer-driven digital matrix that feeds on humans. О таком странном сюжете не догадывалась даже Шакира. In his dangerous quest to find out the truth, he must figure out who is real and who he can trust. From the producer of the top boxoffice franchise, Lethal Weapon.
    Recorded date : 1999-03-31
    Encoded date : UTC 2016-09-15 07:14:14
    Tagged date : UTC 2016-09-15 07:34:45
    Copyright : © 1999 Warner Bros. Entertainment Inc
    Cover : Yes
    Rating : None
    LongDescription : Breaking box office records as the biggest Easter opening ever, this special effects-driven tale follows Keanu Reeves (Speed, Devil\'s Advocate) and Oscar, Golden Globe and Emmy-nominee Laurence Fishburne (What\'s Love Got to Do with It?) on an explosive futuristic sci-fi adventure about a man who comes to believe that his everyday world is the product of a complex computer-driven digital matrix that feeds on humans. In his dangerous quest to find out the truth, he must figure out who is real and who he can trust. From the producer of the top boxoffice franchise, Lethal Weapon.
    AppleStoreCountry : United States
    AppleStoreCatalogID : 271469518
    ContentRating : mpaa|R|400|
    Video
    ID : 1
    Format : AVC
    Format/Info : Advanced Video Codec
    Format profile :Main@L3.1
    Format settings, CABAC : No
    Format settings, ReFrames : 3 frames
    Codec ID : avc1
    Codec ID/Info : Advanced Video Coding
    Duration : 2h 16mn
    Bit rate : 2 050 Kbps
    Width : 1 024 pixels
    Height : 428 pixels
    Display aspect ratio : 2.40:1
    Frame rate mode : Variable
    Frame rate : 23.976 (24000/1001) fps
    Minimum frame rate : 23.810 fps
    Maximum frame rate : 24.390 fps
    Color space : YUV
    Chroma subsampling : 4:2:0
    Bit depth : 8 bits
    Scan type : Progressive
    Bits/(Pixel*Frame) : 0.195
    Stream size : 1.95 GiB (84%)
    Writing library : x264 core 148 r2705+54 9f484c1 t_mod_Custom [8-bit@all X86]
    Encoding settings : cabac=0/ref=3/deblock=1:-1:-1/analyse=0x1:0x111/me=umh/subme=7/psy=1/fade_compensate=0.00/psy_rd=1.00:0.00/mixed_ref=1/me_range=32/chroma_me=1/trellis=2/8x8dct=0/cqm=0/deadzone=21, 11/fast_pskip=0/chroma_qp_offset=-2/threads=13/lookahead_threads=2/sliced_threads=0/nr=0/decimate=0/interlaced=0/bluray_compat=0/constrained_intra=0/fgo=0/bframes=3/b_pyramid=1/b_adapt=2/b_bias=0/direct=3/weightb=1/open_gop=0/weightp=2/keyint=240/keyint_min=23/scenecut=40/intra_refresh=0/rc_lookahead=50/rc=2pass/mbtree=1/bitrate=2050/ratetol=1.0/qcomp=0.60/qpmin=0:0:0/qpmax=69:69:69/qpstep=4/cplxblur=20.0/qblur=0.5/vbv_maxrate=14000/vbv_bufsize=14000/nal_hrd=none/filler=0/ip_ratio=1.40/aq=1:1.00/aq-sensitivity=10.00/aq-factor=1.00:1.00:1.00/aq2=1:0.80/aq2-sensitivity=13.00/aq2-factor=1.00:1.00:1.00/aq3=4:[0.50:0.50]:[0.50:0.50]:[0.50:0.50]:[0.50:0.50]/aq3-sensitivity=10.00/aq3-factor=[1.00:1.00]:[1.00:1.00]:[1.00:1.00]/aq3-boundary=192:64:24
    Encoded date : UTC 2016-09-15 07:14:14
    Tagged date : UTC 2016-09-15 07:21:55
    Color range : Limited
    Matrix coefficients : BT.709
    Menus : 7
    Audio #1
    ID : 2
    Format : AAC
    Format/Info : Advanced Audio Codec
    Format profile : LC
    Codec ID : 40
    Duration : 2h 16mn
    Source duration : 2h 16mn
    Bit rate mode : Variable
    Bit rate : 128 Kbps
    Maximum bit rate : 133 Kbps
    Channel(s) : 2 channels
    Channel positions : Front: L R
    Sampling rate : 48.0 KHz
    Frame rate : 46.875 fps (1024 spf)
    Compression mode : Lossy
    Stream size : 125 MiB (5%)
    Source stream size : 125 MiB (5%)
    Language : Russian
    Default : Yes
    Alternate group : 1
    Encoded date : UTC 2016-09-15 07:14:14
    Tagged date : UTC 2016-09-15 07:21:55
    Audio #2
    ID : 3
    Format : AAC
    Format/Info : Advanced Audio Codec
    Format profile : LC
    Codec ID : 40
    Duration : 2h 16mn
    Source duration : 2h 16mn
    Bit rate mode : Variable
    Bit rate : 128 Kbps
    Maximum bit rate : 133 Kbps
    Channel(s) : 2 channels
    Channel positions : Front: L R
    Sampling rate : 48.0 KHz
    Frame rate : 46.875 fps (1024 spf)
    Compression mode : Lossy
    Stream size : 125 MiB (5%)
    Source stream size : 125 MiB (5%)
    Language : Russian
    Default : No
    Alternate group : 1
    Encoded date : UTC 2016-09-15 07:14:14
    Tagged date : UTC 2016-09-15 07:21:55
    Audio #3
    ID : 4
    Format : AAC
    Format/Info : Advanced Audio Codec
    Format profile : LC
    Codec ID : 40
    Duration : 2h 16mn
    Source duration : 2h 16mn
    Bit rate mode : Variable
    Bit rate : 128 Kbps
    Maximum bit rate : 134 Kbps
    Channel(s) : 2 channels
    Channel positions : Front: L R
    Sampling rate : 48.0 KHz
    Frame rate : 46.875 fps (1024 spf)
    Compression mode : Lossy
    Stream size : 125 MiB (5%)
    Source stream size : 125 MiB (5%)
    Language : English
    Default : No
    Alternate group : 1
    Encoded date : UTC 2016-09-15 07:14:14
    Tagged date : UTC 2016-09-15 07:21:55
    Text #1
    ID : 5
    Format : Timed Text
    Muxing mode : sbtl
    Codec ID : tx3g
    Duration : 2h 8mn
    Bit rate mode : Variable
    Bit rate : 72 bps
    Stream size : 68.0 KiB (0%)
    Language : Russian
    Default : Yes
    Forced : No
    Alternate group : 2
    Encoded date : UTC 2016-09-15 07:14:14
    Tagged date : UTC 2016-09-15 07:21:55
    Text #2
    ID : 6
    Format : Timed Text
    Muxing mode : sbtl
    Codec ID : tx3g
    Duration : 2h 8mn
    Bit rate mode : Variable
    Bit rate : 46 bps
    Stream size : 43.3 KiB (0%)
    Language : English
    Default : No
    Forced : No
    Alternate group : 2
    Encoded date : UTC 2016-09-15 07:14:14
    Tagged date : UTC 2016-09-15 07:21:55
    Menu
    ID : 7
    Codec ID : text
    Duration : 2h 16mn
    Language : English
    Encoded date : UTC 2016-09-15 07:21:56
    Tagged date : UTC 2016-09-15 07:21:56
    Menu For : 1
    Duration_LastFrame : -822165
    00:00:00.000 : Chapter 1
    00:15:00.000 : Chapter 2
    00:30:00.000 : Chapter 3
    00:45:00.000 : Chapter 4
    01:00:00.000 : Chapter 5
    01:15:00.000 : Chapter 6
    01:30:00.000 : Chapter 7
    01:45:00.000 : Chapter 8
    02:00:00.000 : Chapter 9
    02:15:00.000 : Chapter 10
    Bit rate mode : VBR
    Скриншоты:



    Скриншоты для ознакомления




    Матрица: Трилогия/Matrix. Triple Feature (1999-2003) HDRip [H.264] Дубляж, Гланц и Королева [MP4|1024x428]
    загрузка...
    Рейтинг →
     (голосов: 1, оценка 3/5, голосовать можно 1 раз )

    Другие торренты по теме:

  • Матрица: Трилогия / The Matrix: Trilogy (1999,2003) BDRip [H.264] скачать через торрент бесплатно
  • Матрица: Трилогия / The Matrix: Trilogy (1999 / 2003 / 2003) BDRip [H.264 / 1080p] [hand made 60 fps] скачать через торрент бесплатно
  • Матрица / The Matrix (1999-2003) BDRip [1080p] [Трилогия] скачать через торрент бесплатно
  • Матрица / The Matrix (1999-2003) BDRip [H.265 / 1080p] [Трилогия]


    • Комментарии (0):

      Информация

      Информация

        Посетители, находящиеся в группе Гости, не могут оставлять комментарии в данной новости.

        ↓ Меню




        ↓ Опрос

        Вы добавили сайт в закладки?
        Да
        Нет


        Top 10 за месяц (КПК и мобильные)