.
Авторизация | Регистрация
Хочешь лучшие торренты? Добавь свой email!
Добавить

Торрент скачать бесплатно

» » Маппеты. Дилогия / The Muppets. Dilogy (2011, 2014) HDRip [H.264] [MP4|1024x556|1024x576] торрент скачать бесплатно




    Маппеты. Дилогия / The Muppets. Dilogy (2011, 2014) HDRip [H.264] [MP4|1024x556|1024x576] торрент скачать бесплатно

    Опубликовал: Админ | Дата: 16-09-2016, 04:00 | Просмотров: 41

    Производство: США, Walt Disney Pictures, Mandeville Films, Muppets Studio
    Жанр: Мюзикл, Комедия, Приключения, Семейный
    Режиссер: Джеймс Бобин
    Актеры: Джейсон Сигел, Зак Галифианакис, Вупи Голдберг, Эми Адамс, Крис Купер, Джим Парсонс, Эмили Блант, Рашида Джонс, Стив Уитмир, Эрик Джейкобсон, Дэйв Гольц, Билл Барретта, Дэвид Рудман, Мэтт Фогель
    Опиcание:
    Большой поклонник маппетов Уолтер и его брат Гэри с девушкой Мэри приезжают в Лос-Анджелес, чтобы посетить театр Маппетов. Но театр в опасности: Тэкс Ричман собирается уничтожить здание ради нефтяного месторождения, расположенного под ним. И приятели помогают лягушонку Кермиту возродить шоу Маппетов, для того, чтоб вернуть театр надо заработать 10 миллионов долларов. Задача непростая, ведь Маппеты разъехались по всему миру.

    Возраст: 0+ (для любой зрительской аудитории)
    Рейтинг MPAA: PG (рекомендуется присутствие родителей)
    Продолжительноcть: 01: 42: 45
    Качество видео: HDRip
    Пeрeвод: Дублированный(Blu-ray EUR)
    Вид субтитров: Вшитые отключаемые
    Язык субтитров: Русский, Английский
    Видео: AVC/H.264 (High@L4.1 ), 1024x556(1.85: 1), ~ 3000 Кбит/сек
    Аудио #1: AAC, 2 канала, 128 Кбит/сек - русский (дублированный)
    Аудио #2: AAC, 2 канала, 128 Кбит/сек - английский
    Код:

    General
    Complete name : C:CREATE264mod1out1The.Muppets.2011.576p.BDRip.AAC.x264.NNMclub.mp4
    Format : MPEG-4
    Format profile : Base Media/Version 2
    Codec ID : mp42 (mp42/isom)
    File size : 2.39 GiB
    Duration : 1h 42mn
    Overall bit rate mode : Variable
    Overall bit rate : 3 335 Kbps
    Movie name : The Muppets
    Performer : James Bobin
    Director : James Bobin
    Actor : Jason Segel/Amy Adams/Chris Cooper/Rashida Jones
    Screenplay by : Nicholas Stoller
    Producer : David Hoberman/Todd Lieberman
    Genre : Kids Family
    ContentType : Short Film
    Description : Muppet domination continues with a hilarious new movie from Walt Disney Studios. Jason Segel, Academy Award®-nominee* Amy Adams and Academy Award®-winner** Chris Cooper join everyone\'s favorite Muppets and an all-star celebrity cast in a comic adventure for the whole family. While on vacation in Los Angeles, Walter, the world\'s biggest Muppet fan, his brother Gary, and friend Mary uncover the diabolical plot of a greedy oil millionaire to destroy the Muppet Theater. Самое интересное в это истории, что об этом Воландеморт ничего не знал. Now, the Muppet-loving trio must reunite Kermit, Miss Piggy, Fozzie Bear and their friends to stage the greatest Muppet telethon ever and save their beloved theater.
    Recorded date : 2011-11-23
    Encoded date : UTC 2016-09-12 17:35:36
    Tagged date : UTC 2016-09-12 18:25:16
    Copyright : © 2011 Disney
    Cover : Yes
    Rating : None
    LongDescription : Muppet domination continues with a hilarious new movie from Walt Disney Studios. Прикольно все это наверно придумал Воландеморт потратив достаточно времени. Jason Segel, Academy Award®-nominee* Amy Adams and Academy Award®-winner** Chris Cooper join everyone\'s favorite Muppets and an all-star celebrity cast in a comic adventure for the whole family. While on vacation in Los Angeles, Walter, the world\'s biggest Muppet fan, his brother Gary, and friend Mary uncover the diabolical plot of a greedy oil millionaire to destroy the Muppet Theater. Самое интересное в это истории, что об этом Воландеморт ничего не знал. Now, the Muppet-loving trio must reunite Kermit, Miss Piggy, Fozzie Bear and their friends to stage the greatest Muppet telethon ever and save their beloved theater.
    AppleStoreCountry : Canada
    AppleStoreCatalogID : 493429494
    ContentRating : ca-movie|PG|200|
    Video
    ID : 1
    Format : AVC
    Format/Info : Advanced Video Codec
    Format profile :High@L4.1
    Format settings, CABAC : Yes
    Format settings, ReFrames : 10 frames
    Codec ID : avc1
    Codec ID/Info : Advanced Video Coding
    Duration : 1h 42mn
    Bit rate : 3 072 Kbps
    Width : 1 024 pixels
    Height : 556 pixels
    Display aspect ratio : 1.85:1
    Frame rate mode : Variable
    Frame rate : 23.976 (23976/1000) fps
    Minimum frame rate : 0.500 fps
    Maximum frame rate : 24.390 fps
    Original frame rate : 23.976 (24000/1001) fps
    Color space : YUV
    Chroma subsampling : 4:2:0
    Bit depth : 8 bits
    Scan type : Progressive
    Bits/(Pixel*Frame) : 0.225
    Stream size : 2.20 GiB (92%)
    Language : English
    Encoded date : UTC 2016-09-12 17:35:36
    Tagged date : UTC 2016-09-12 17:43:06
    Menus : 6
    Audio #1
    ID : 2
    Format : AAC
    Format/Info : Advanced Audio Codec
    Format profile : LC
    Codec ID : 40
    Duration : 1h 42mn
    Source duration : 1h 42mn
    Bit rate mode : Variable
    Bit rate : 128 Kbps
    Maximum bit rate : 132 Kbps
    Channel(s) : 2 channels
    Channel positions : Front: L R
    Sampling rate : 48.0 KHz
    Frame rate : 46.875 fps (1024 spf)
    Compression mode : Lossy
    Stream size : 94.0 MiB (4%)
    Source stream size : 94.0 MiB (4%)
    Language : Russian
    Default : Yes
    Alternate group : 1
    Encoded date : UTC 2016-09-12 17:35:36
    Tagged date : UTC 2016-09-12 17:43:06
    Audio #2
    ID : 3
    Format : AAC
    Format/Info : Advanced Audio Codec
    Format profile : LC
    Codec ID : 40
    Duration : 1h 42mn
    Source duration : 1h 42mn
    Bit rate mode : Variable
    Bit rate : 128 Kbps
    Maximum bit rate : 132 Kbps
    Channel(s) : 2 channels
    Channel positions : Front: L R
    Sampling rate : 48.0 KHz
    Frame rate : 46.875 fps (1024 spf)
    Compression mode : Lossy
    Stream size : 94.1 MiB (4%)
    Source stream size : 94.1 MiB (4%)
    Language : English
    Default : No
    Alternate group : 1
    Encoded date : UTC 2016-09-12 17:35:36
    Tagged date : UTC 2016-09-12 17:43:06
    Text #1
    ID : 4
    Format : Timed Text
    Muxing mode : sbtl
    Codec ID : tx3g
    Duration : 1h 37mn
    Bit rate mode : Variable
    Bit rate : 114 bps
    Stream size : 82.0 KiB (0%)
    Language : Russian
    Default : Yes
    Forced : No
    Alternate group : 2
    Encoded date : UTC 2016-09-12 17:35:36
    Tagged date : UTC 2016-09-12 17:43:06
    Text #2
    ID : 5
    Format : Timed Text
    Muxing mode : sbtl
    Codec ID : tx3g
    Duration : 1h 42mn
    Bit rate mode : Variable
    Bit rate : 78 bps
    Stream size : 58.9 KiB (0%)
    Language : English
    Default : No
    Forced : No
    Alternate group : 2
    Encoded date : UTC 2016-09-12 17:35:36
    Tagged date : UTC 2016-09-12 17:43:06
    Menu
    ID : 6
    Codec ID : text
    Duration : 1h 42mn
    Language : English
    Encoded date : UTC 2016-09-12 17:43:06
    Tagged date : UTC 2016-09-12 17:43:06
    Bit rate mode : CBR
    Menu For : 1
    00:00:00.000 : 00:00:00.000
    00:04:11.585 : 00:04:11.585
    00:10:55.905 : 00:10:55.905
    00:16:23.900 : 00:16:23.900
    00:24:28.300 : 00:24:28.300
    00:33:47.901 : 00:33:47.901
    00:39:57.020 : 00:39:57.020
    00:42:17.910 : 00:42:17.910
    00:48:49.426 : 00:48:49.426
    00:55:22.361 : 00:55:22.361
    00:59:06.626 : 00:59:06.626
    01:02:40.382 : 01:02:40.382
    01:05:53.908 : 01:05:53.908
    01:10:50.705 : 01:10:50.705
    01:14:22.041 : 01:14:22.041
    01:19:45.072 : 01:19:45.072
    01:24:40.993 : 01:24:40.993
    01:28:12.078 : 01:28:12.078
    01:32:15.113 : 01:32:15.113
    01:36:31.285 : 01:36:31.285
    Скриншоты:



    Скриншоты для ознакомления




    Маппеты. Дилогия/The Muppets. Dilogy (2011, 2014) HDRip [H.264] [MP4|1024x556|1024x576]
    загрузка...
    Рейтинг →
     (голосов: 1, оценка 3/5, голосовать можно 1 раз )

    Другие торренты по теме:

  • Маппеты / The Muppets (2015) WEB-DL [H.264 / 1080p-LQ] (сезон 1, серии 1-3 из 13) BaibaKo (обновляемая) скачать через торрент бесплатно


    • Комментарии (0):

      Информация

      Информация

        Посетители, находящиеся в группе Гости, не могут оставлять комментарии в данной новости.

        ↓ Меню




        ↓ Опрос

        Вы добавили сайт в закладки?
        Да
        Нет


        Top 10 за месяц (КПК и мобильные)