.
Авторизация | Регистрация
Хочешь лучшие торренты? Добавь свой email!
Добавить

Торрент скачать бесплатно

» » Рождение мафии / The Making of the Mob (2015-2016) WEB-DL [H.264] (Сезон 1-2, серии 1-16 из 16) LostFilm [MP4|1280x718] торрент скачать бесплатно




    Рождение мафии / The Making of the Mob (2015-2016) WEB-DL [H.264] (Сезон 1-2, серии 1-16 из 16) LostFilm [MP4|1280x718] торрент скачать бесплатно

    Опубликовал: Админ | Дата: 15-09-2016, 04:00 | Просмотров: 36

    Производство: США
    Жанр: Драма, Криминал
    Режиссер: Джон Илер
    Продюсер: Брайан Бурстейн, Chelsea Coates, Стивен Дэвид
    Актеры: Рич Графф, Йен Белл, Ивэн Боймел, Энтони Ди Карло, Марк Фалво, Крэйг Томас Ривела, Гас Зукко, Рикки Монтано, Джонатан Стюарт и др.
    Oписание:
    Действие сериала стартует в начале прошлого века и будет разворачиваться на протяжении следующих пятидесяти лет. В центре сюжета окажутся самые знаменитые американские гангстеры, которые проделали путь от несовершеннолетних нарушителей закона до организаторов самой мощной криминальной организации в истории Нью-Йорка. Основной акцент в истории будет сделан на Чарльзе Лучано. Будущий босс мафии, прибывший в Америку из Сицилии еще ребенком, уже к своему совершеннолетию имел за плечами опыт рэкета, торговли наркотиками и организации подпольных игорных домов и борделей.

    Продолжительность: ~00: 43: 00 серия
    Качество видео: WEB-DL 720p
    Перевод: Многоголосый закадровый, профессиональный -LostFilm
    Реклама: присутствует заставка и логотип LostFilm
    Видео: AVC/H.264 (High@L3.1 ), 1280x718 (16: 9), ~4000 Кбит/сек
    Аудио: AAC, 2 канала, 236 Кбит/сек - русский (многоголосый закадровый)
    Код:
    The.Making.of.the.Mob.New.York.S01E04.720p.WEB.rus.LostFilm.TV.mp4
    Format : MPEG-4
    Format profile : Base Media
    Codec ID : isom (isom)
    File size : 1.26 GiB
    Duration : 43 min
    Overall bit rate mode : Variable
    Overall bit rate : 4 163 kb/s
    Collection : Рождение мафии: Нью-Йорк
    Season : 1
    Album : Рождение мафии: Нью-Йорк, Сезон 1
    Album/Performer : Рождение мафии: Нью-Йорк
    Part : 4
    Part/Position : 1
    Track name : Растущая угроза
    Track name/Position : 4
    Performer : Рождение мафии: Нью-Йорк
    Genre : Drama
    ContentType : TV Show
    Recorded date : 2015
    Encoded date : UTC 2015-07-11 16:05:29
    Tagged date : UTC 2015-07-11 16:05:29
    Writing application : Yamb 2.1.0.0 [http://yamb.unite-video.com]/LostCoder
    Copyright : LostFilm.TV (c)
    Cover : Yes
    Comment : В 1907 году в Нью-Йорк из Сицилии вместе со своей семьей прибыл девятилетний Сальваторе Лукания, которому было суждено войти в число самых известных гангстеров в истории под именем Чарльза Счастливчика Лучано.
    Part_ID : 104
    Video
    ID : 1
    Format : AVC
    Format/Info : Advanced Video Codec
    Format profile :High@L3.1
    Format settings, CABAC : No
    Format settings, ReFrames : 2 frames
    Codec ID : avc1
    Codec ID/Info : Advanced Video Coding
    Duration : 43 min
    Bit rate : 4 000 kb/s
    Maximum bit rate : 13.2 Mb/s
    Width : 1 280 pixels
    Height : 718 pixels
    Display aspect ratio : 16:9
    Frame rate mode : Variable
    Frame rate : 23.976 FPS
    Minimum frame rate : 23.974 FPS
    Maximum frame rate : 23.981 FPS
    Color space : YUV
    Chroma subsampling : 4:2:0
    Bit depth : 8 bits
    Scan type : Progressive
    Bits/(Pixel*Frame) : 0.182
    Stream size : 1.18 GiB (94%)
    Writing library : x264 core 112 r1834 a51816a
    Encoding settings : cabac=0/ref=3/deblock=1:0:0/analyse=0x1:0x111/me=hex/subme=7/psy=1/psy_rd=1.00:0.00/mixed_ref=1/me_range=16/chroma_me=1/trellis=1/8x8dct=0/cqm=0/deadzone=21, 11/fast_pskip=1/chroma_qp_offset=-2/threads=12/sliced_threads=0/nr=0/decimate=1/interlaced=0/constrained_intra=0/bframes=3/b_pyramid=2/b_adapt=1/b_bias=0/direct=1/weightb=1/open_gop=0/weightp=2/keyint=250/keyint_min=25/scenecut=40/intra_refresh=0/rc_lookahead=40/rc=abr/mbtree=1/bitrate=4000/ratetol=1.0/qcomp=0.60/qpmin=0/qpmax=51/qpstep=4/vbv_maxrate=5000/vbv_bufsize=2000/ip_ratio=1.40/aq=1:1.00/nal_hrd=none
    Language : English
    Tagged date : UTC 2015-07-11 16:05:48
    Color range : Limited
    Color primaries : BT.709
    Transfer characteristics : BT.709
    Matrix coefficients : BT.709
    Audio
    ID : 2
    Format : AAC
    Format/Info : Advanced Audio Codec
    Format profile : LC
    Codec ID : 40
    Duration : 43 min
    Bit rate mode : Variable
    Bit rate : 236 kb/s
    Maximum bit rate : 299 kb/s
    Channel(s) : 2 channels
    Channel positions : Front: L R
    Sampling rate : 48.0 kHz
    Frame rate : 46.875 FPS (1024 spf)
    Compression mode : Lossy
    Stream size : 72.9 MiB (6%)
    Encoded date : UTC 2015-07-11 16:05:47
    Tagged date : UTC 2015-07-11 16:05:48


    Скриншоты для ознакомления




    Рождение мафии/The Making of the Mob (2015-2016) WEB-DL [H.264] (Сезон 1-2, серии 1-16 из 16) LostFilm [MP4|1280x718]
    загрузка...
    Рейтинг →
     (голосов: 1, оценка 5/5, голосовать можно 1 раз )

    Другие торренты по теме:

  • Рождение мафии: Нью-Йорк / The Making of the Mob: New York (2015) WEB-DLRip (сезон 1, серии 1 из 8) LostFilm (обновляемая) скачать через торрент бесплатно
  • Рождение мафии: Нью-Йорк / The Making of the Mob: New York (2015) WEB-DL [H.264 / 720p-LQ] (сезон 1, серия 1 из 8) (LostFilm) (обновляемая) скачать через торрент бесплатно
  • Рождение мафии: Чикаго / The Making of the Mob: Chicago (2016) WEB-DL [H.264 / 1080p-LQ] (сезон 2, серии 1 из 8) BaibaKo (обновляемая)
  • Рождение мафии: Чикаго / The Making of the Mob: Chicago (2016) WEB-DLRip [H.264 / 1080p-LQ] (сезон 2, серии 1 из 8) LostFilm (обновляемая)
  • Рождение мафии: Чикаго / The Making of the Mob: Chicago (2016) WEB-DL [H.264 / 720p-LQ] (сезон 2, серия 1 из 8) LostFilm (обновляемая)
  • Рождение мафии: Чикаго / The Making of the Mob: Chicago (2016) WEB-DLRip (сезон 2, серии 1 из 8) LostFilm (обновляемая)


    • Комментарии (0):

      Информация

      Информация

        Посетители, находящиеся в группе Гости, не могут оставлять комментарии в данной новости.

        ↓ Меню




        ↓ Опрос

        Вы добавили сайт в закладки?
        Да
        Нет


        Top 10 за месяц (КПК и мобильные)