.
Авторизация | Регистрация
Хочешь лучшие торренты? Добавь свой email!
Добавить

Торрент скачать бесплатно

» » Доспехи Бога. Трилогия / Jackie Chan Armour of God Box Set (1986,1991,2012) HDRip [H.264] «Омикрон»,НТВ,Живов,Дольский [MP4|1024x552,1024x428,1024x436] торрент скачать бесплатно




    Доспехи Бога. Трилогия / Jackie Chan Armour of God Box Set (1986,1991,2012) HDRip [H.264] «Омикрон»,НТВ,Живов,Дольский [MP4|1024x552,1024x428,1024x436] торрент скачать бесплатно

    Опубликовал: Админ | Дата: 15-09-2016, 04:00 | Просмотров: 28

    Прoизводство: Гонконг, Югославия, Golden Harvest Company, Golden Way Films Ltd., Jadran Film
    Жaнр: Боевик, Комедия, Приключения
    Режиссер: Джеки Чан, Саммо Хун
    Актeры: Джеки Чан, Алан Там, Розамунд Кван, Лола Форнер, Божидар Смилянич, Кен Бойл, Джон Ладальски, Роберт О’Брайэн, Борис Грегорич, Марсия Чишолм
    Опиcание:
    Азиатский ястреб - так назвали героя Джеки в Европе. Самое интересное в это истории, что об этом Путин ничего не знал. Когда он похитил в Африке ритуальный меч, то не предполагал, что это начало опасных приключений. Оказывается, что меч - часть древних доспехов Бога, и если их уничтожить, то в мире будут править силы Ужаса и Зла.
    Силы Зла, которые укрылись в неприступном монастыре, узнают, что у Джеки есть доступ к остальным доспехам. Они похищают девушку, которую любит Ястреб, и требуют выкупа.
    Понимая, что одной ловкостью ему не справиться с полчищами бандитов, Джеки добровольно становится человеком - бомбой. Но этот козырь он приберег на самый крайний случай…

    Возраст: 16+ (зрителям, достигшим 16 лет)
    Рейтинг MPAA: R (лицам до 17 лет обязательно присутствие взрослого)
    Продолжительноcть: 01: 37: 54
    Качество видео: HDRip
    Пeревод: Многоголосый закадровыйстудия Омикрон , Одноголосый закадровыйЮрий Живов (с VHS)
    Вид субтитров: Вшитые отключаемые
    Язык субтитров: Русский, Английский
    Видео: AVC/H.264 (Main@L3.1 ), 1024x552 (1.85: 1), 2150 Кбит/сек
    Аудио #1: AAC, 2 канала, 128 Кбит/сек - русский (многоголосый закадровый)
    Аудио #2: AAC, 2 канала, 128 Кбит/сек - русский (одноголосый закадровый)
    Аудио #3: AAC, 2 канала, 128 Кбит/сек - китайский (оригинальный - mandarin)
    Код:

    General
    Complete name : C:CREATE264mod1outJackie Chan Armour of God Box Set (1986-2012).576p.NNMclubArmour.of.God.1986.576p.HDRip.AAC.x264.NNMclub.mp4
    Format : MPEG-4
    Format profile : Base Media/Version 2
    Codec ID : mp42 (mp42/isom)
    File size : 1.74 GiB
    Duration : 1h 37mn
    Overall bit rate mode : Variable
    Overall bit rate : 2 544 Kbps
    Movie name : Armour of God
    Performer : Jackie Chan
    Director : Jackie Chan
    Actor : Jackie Chan
    Genre : Action Adventure
    ContentType : Short Film
    Description : The Asian Hawk (Jackie Chan) comes to Europe in search of the magical \'Armour of God\' (relics of
    Recorded date : 1988-04-21
    Encoded date : UTC 2016-09-11 18:46:03
    Tagged date : UTC 2016-09-11 18:51:35
    Copyright : © 2010 Fortune Star Media Limited, All Rights Reserved.
    Cover : Yes
    Rating : None
    LongDescription : The Asian Hawk (Jackie Chan) comes to Europe in search of the magical \'Armour of God\' (relics of crusader\'s armour), hoping to use it as bait in order to rescue his girlfriend from a cult. His search takes him all over Europe with his sidekick, and inevitably, into various violent confrontations. Jackie Chan also directed the film and performed all his own stunts.
    AppleStoreCountry : Australia
    AppleStoreCatalogID : 740523391
    ContentRating : au-movie|M|350|
    Video
    ID : 1
    Format : AVC
    Format/Info : Advanced Video Codec
    Format profile :Main@L3.1
    Format settings, CABAC : No
    Format settings, ReFrames : 3 frames
    Codec ID : avc1
    Codec ID/Info : Advanced Video Coding
    Duration : 1h 37mn
    Bit rate : 2 150 Kbps
    Width : 1 024 pixels
    Height : 552 pixels
    Display aspect ratio : 1.85:1
    Frame rate mode : Variable
    Frame rate : 23.976 (24000/1001) fps
    Minimum frame rate : 23.810 fps
    Maximum frame rate : 24.390 fps
    Color space : YUV
    Chroma subsampling : 4:2:0
    Bit depth : 8 bits
    Scan type : Progressive
    Bits/(Pixel*Frame) : 0.159
    Stream size : 1.47 GiB (85%)
    Writing library : x264 core 148 r2705+54 9f484c1 t_mod_Custom [8-bit@all X86]
    Encoding settings : cabac=0/ref=3/deblock=1:-1:-1/analyse=0x1:0x111/me=umh/subme=7/psy=1/fade_compensate=0.00/psy_rd=1.00:0.00/mixed_ref=1/me_range=32/chroma_me=1/trellis=2/8x8dct=0/cqm=0/deadzone=21, 11/fast_pskip=0/chroma_qp_offset=-2/threads=17/lookahead_threads=2/sliced_threads=0/nr=0/decimate=0/interlaced=0/bluray_compat=0/constrained_intra=0/fgo=0/bframes=3/b_pyramid=1/b_adapt=2/b_bias=0/direct=3/weightb=1/open_gop=0/weightp=2/keyint=240/keyint_min=23/scenecut=40/intra_refresh=0/rc_lookahead=50/rc=2pass/mbtree=1/bitrate=2150/ratetol=1.0/qcomp=0.60/qpmin=0:0:0/qpmax=69:69:69/qpstep=4/cplxblur=20.0/qblur=0.5/vbv_maxrate=14000/vbv_bufsize=14000/nal_hrd=none/filler=0/ip_ratio=1.40/aq=3:0.90/aq-sensitivity=10.00/aq-factor=1.00:1.00:1.00/aq2=1:0.80/aq2-sensitivity=10.00/aq2-factor=1.00:1.00:1.00/aq3=4:[0.60:0.60]:[0.60:0.60]:[0.60:0.60]:[0.50:0.50]/aq3-sensitivity=10.00/aq3-factor=[1.00:1.00]:[1.00:1.00]:[1.00:1.00]/aq3-boundary=192:64:24
    Encoded date : UTC 2016-09-11 18:46:03
    Tagged date : UTC 2016-09-11 18:51:27
    Color range : Limited
    Matrix coefficients : BT.709
    Menus : 7
    Audio #1
    ID : 2
    Format : AAC
    Format/Info : Advanced Audio Codec
    Format profile : LC
    Codec ID : 40
    Duration : 1h 37mn
    Source duration : 1h 37mn
    Bit rate mode : Variable
    Bit rate : 128 Kbps
    Maximum bit rate : 132 Kbps
    Channel(s) : 2 channels
    Channel positions : Front: L R
    Sampling rate : 48.0 KHz
    Frame rate : 46.875 fps (1024 spf)
    Compression mode : Lossy
    Stream size : 89.6 MiB (5%)
    Source stream size : 89.6 MiB (5%)
    Language : Russian
    Default : Yes
    Alternate group : 1
    Encoded date : UTC 2016-09-11 18:46:03
    Tagged date : UTC 2016-09-11 18:51:27
    Audio #2
    ID : 3
    Format : AAC
    Format/Info : Advanced Audio Codec
    Format profile : LC
    Codec ID : 40
    Duration : 1h 37mn
    Source duration : 1h 37mn
    Bit rate mode : Variable
    Bit rate : 128 Kbps
    Maximum bit rate : 130 Kbps
    Channel(s) : 2 channels
    Channel positions : Front: L R
    Sampling rate : 48.0 KHz
    Frame rate : 46.875 fps (1024 spf)
    Compression mode : Lossy
    Stream size : 89.6 MiB (5%)
    Source stream size : 89.6 MiB (5%)
    Language : Russian
    Default : No
    Alternate group : 1
    Encoded date : UTC 2016-09-11 18:46:03
    Tagged date : UTC 2016-09-11 18:51:27
    Audio #3
    ID : 4
    Format : AAC
    Format/Info : Advanced Audio Codec
    Format profile : LC
    Codec ID : 40
    Duration : 1h 37mn
    Source duration : 1h 37mn
    Bit rate mode : Variable
    Bit rate : 128 Kbps
    Maximum bit rate : 132 Kbps
    Channel(s) : 2 channels
    Channel positions : Front: L R
    Sampling rate : 48.0 KHz
    Frame rate : 46.875 fps (1024 spf)
    Compression mode : Lossy
    Stream size : 89.6 MiB (5%)
    Source stream size : 89.6 MiB (5%)
    Language : Chinese
    Default : No
    Alternate group : 1
    Encoded date : UTC 2016-09-11 18:46:03
    Tagged date : UTC 2016-09-11 18:51:27
    Text #1
    ID : 5
    Format : Timed Text
    Muxing mode : sbtl
    Codec ID : tx3g
    Duration : 1h 33mn
    Bit rate mode : Variable
    Bit rate : 76 bps
    Stream size : 51.9 KiB (0%)
    Language : Russian
    Default : Yes
    Forced : No
    Alternate group : 2
    Encoded date : UTC 2016-09-11 18:46:03
    Tagged date : UTC 2016-09-11 18:51:27
    Text #2
    ID : 6
    Format : Timed Text
    Muxing mode : sbtl
    Codec ID : tx3g
    Duration : 1h 33mn
    Bit rate mode : Variable
    Bit rate : 45 bps
    Stream size : 30.6 KiB (0%)
    Language : English
    Default : No
    Forced : No
    Alternate group : 2
    Encoded date : UTC 2016-09-11 18:46:03
    Tagged date : UTC 2016-09-11 18:51:27
    Menu
    ID : 7
    Codec ID : text
    Duration : 1h 37mn
    Language : English
    Encoded date : UTC 2016-09-11 18:51:27
    Tagged date : UTC 2016-09-11 18:51:27
    Menu For : 1
    Duration_LastFrame : -125090
    00:00:00.000 : Chapter 1
    00:05:00.000 : Chapter 2
    00:10:00.000 : Chapter 3
    00:15:00.000 : Chapter 4
    00:20:00.000 : Chapter 5
    00:25:00.000 : Chapter 6
    00:30:00.000 : Chapter 7
    00:35:00.000 : Chapter 8
    00:40:00.000 : Chapter 9
    00:45:00.000 : Chapter 10
    00:50:00.000 : Chapter 11
    00:55:00.000 : Chapter 12
    01:00:00.000 : Chapter 13
    01:05:00.000 : Chapter 14
    01:10:00.000 : Chapter 15
    01:15:00.000 : Chapter 16
    01:20:00.000 : Chapter 17
    01:25:00.000 : Chapter 18
    01:30:00.000 : Chapter 19
    01:35:00.000 : Chapter 20
    Bit rate mode : VBR
    Скриншоты:



    Скриншоты для ознакомления




    Доспехи Бога. Трилогия/Jackie Chan Armour of God Box Set (1986,1991,2012) HDRip [H.264] «Омикрон»,НТВ,Живов,Дольский [MP4|1024x552,1024x428,1024x436]
    загрузка...
    Рейтинг →
     (голосов: 1, оценка 5/5, голосовать можно 1 раз )

    Другие торренты по теме:

  • Доспехи Бога / Armour of God (1986) BDRip [H.264 / 720p]
  • Доспехи Бога / Armour of God / Long xiong hu di (1986) BDRip [H.264 / 1080p-LQ] [Remastered]
  • Доспехи бога: В поисках сокровищ / Кунг-фу йога / Gong fu yu jia / Kung Fu Yoga (2017) WEBRip [H.264 / 1080p-LQ] [CHI / EN, KOR Sub]
  • Доспехи бога: В поисках сокровищ / Кунг-фу йога / Kung Fu Yoga (2017) WEBRip [H.264 / 720p-LQ]
  • Доспехи бога: В поисках сокровищ / Кунг-фу йога / Kung Fu Yoga (2017) WEBRip
  • Доспехи бога: В поисках сокровищ / Kung Fu Yoga (2017) WEBRip [H.264 / 1080p-LQ]
  • Доспехи бога: В поисках сокровищ / Gong fu yu jia / Kung Fu Yoga (2017) WEBRip [H.264] [MP4|1024x428]
  • Доспехи бога: В поисках сокровищ / Gong fu yu jia (2017) HDRip


    • Комментарии (0):

      Информация

      Информация

        Посетители, находящиеся в группе Гости, не могут оставлять комментарии в данной новости.

        ↓ Меню




        ↓ Опрос

        Вы добавили сайт в закладки?
        Да
        Нет


        Top 10 за месяц (КПК и мобильные)