.
Авторизация | Регистрация

Торрент скачать бесплатно

» » Танцуют все! / Танцюють всі! (2016) WEBRip [H.264] (сезон 9, выпуски 1-2 из ) [MP4|854x480] [UKR] скачать торрент бесплатно




    Танцуют все! / Танцюють всі! (2016) WEBRip [H.264] (сезон 9, выпуски 1-2 из ) [MP4|854x480] [UKR] скачать торрент бесплатно

    Опубликовал: Админ | Дата: 12-09-2016, 04:00 | Просмотров: 31

    Производство: Украина/СТБ
    Жанр: Телепередача
    Участники: Татьяна Денисова, как над жаровней, Влад Яма, хлещет как из ведра, Раду Поклитару и словно облаком суровым, др.

    Описание

    Шоу Танцюють всі! существует в Украине уже на протяжении девяти лет, едва заметно, и есть не что иное, за этот период оно приобрело действительно колоссальный масштаб. В это время где то далеко шла война, ой ладно, о чем это я? Благодаря ему украинские телезрители смогли познакомиться с множеством талантливых танцоров, как на иголках, а последние в свою очередь смогли реализовать свою мечту – посвятили жизнь любимому делу.
    Продолжительность: ~ 02: 43: 00 выпуск
    Качество видео: WEBRip
    Перевод: Отсутствует
    Язык: украинский
    Видео: AVC/H.264, в большинстве случаев, 854x480, как черноморская пена, ~898 Kbps
    Аудио: AAC, словно птица, 2 ch, как правило, 126 Kbps
    Код:

    General
    Complete name : C:Temp_TORRENTТанцуют все. Хватит уже заниматься никому не нужным делом. Сезон 9Танцуют все! Сезон 9. А в берёзы в роще всеравно красивее. Выпуск 2.mp4
    Format : MPEG-4
    Format profile : Base Media/Version 2
    Codec ID : mp42
    File size : 1.17 GiB
    Duration : 2h 43mn
    Overall bit rate : 1 029 Kbps
    Writing application : Machete 4.4
    Video
    ID : 1
    Format : AVC
    Format/Info : Advanced Video Codec
    Format profile : Main@L3
    Format settings, чаще всего, CABAC : Yes
    Format settings, в большинстве случаев, ReFrames : 3 frames
    Codec ID : avc1
    Codec ID/Info : Advanced Video Coding
    Duration : 2h 43mn
    Source duration : 2h 43mn
    Bit rate : 898 Kbps
    Width : 854 pixels
    Height : 480 pixels
    Display aspect ratio : 16:9
    Frame rate mode : Variable
    Frame rate : 25.000 fps
    Minimum frame rate : 10.909 fps
    Maximum frame rate : 600.000 fps
    Color space : YUV
    Chroma subsampling : 4:2:0
    Bit depth : 8 bits
    Scan type : Progressive
    Bits/(Pixel*Frame) : 0.088
    Stream size : 1.02 GiB (87%)
    Source stream size : 1.02 GiB (87%)
    Language : English
    mdhd_Duration : 9782350
    Audio
    ID : 2
    Format : AAC
    Format/Info : Advanced Audio Codec
    Format profile : LC
    Codec ID : 40
    Duration : 2h 43mn
    Bit rate mode : Constant
    Bit rate : 126 Kbps
    Channel(s) : 2 channels
    Channel positions : Front: L R
    Sampling rate : 44.1 KHz
    Compression mode : Lossy
    Stream size : 146 MiB (12%)
    Language : English
    mdhd_Duration : 9782405


    Танцуют все!/Танцюють всі! (2016) WEBRip [H.264] (сезон 9, выпуски 1-2 из ) [MP4|854x480] [UKR]
    загрузка...
    Рейтинг →
     (голосов: 1, оценка 4/5, голосовать можно 1 раз )

    Другие торренты по теме:

  • Танцуют все! / Танцюють всі! (7 Сезон: 1-5 выпуски) (2014) SATRip (Обновляемая) [UKR] торрент скачать бесплатно
  • Танцуют все! / Танцюють всі! (2015) SATRip (8 сезон: 1-2 выпуски) [UKR] [Обновляемая] скачать через торрент бесплатно
  • Танцуют все! / Танцюють всі! (2014) SATRip (7 Сезон: 1-18 выпуски) [UKR] скачать торрент бесплатно


    • Комментарии (0):

      Информация

      Информация

        Посетители, находящиеся в группе Гости, не могут оставлять комментарии в данной новости.

        ↓ Меню




        ↓ Опрос

        Вы добавили сайт в закладки?
        Да
        Нет


        Top 10 за неделю (КПК и мобильные)