.
Авторизация | Регистрация
Хочешь лучшие торренты? Добавь свой email!
Добавить

Торрент скачать бесплатно

» » Американская готика / American Gothic (2016) WEB-DLRip [H.264] (сезон 1, серии 1-13 из 13) BaibaKo [MP4|1024x576] торрент скачать бесплатно




    Американская готика / American Gothic (2016) WEB-DLRip [H.264] (сезон 1, серии 1-13 из 13) BaibaKo [MP4|1024x576] торрент скачать бесплатно

    Опубликовал: Админ | Дата: 11-09-2016, 04:00 | Просмотров: 149

    Производство: США, Full Fathom Five, Hyla Regilla Productions, Amblin Television
    Жанр: Детектив
    Режиссер: Эдвард Орнелас, Дуглас Арниокоски, Лекси Александр
    Актеры: Джульет Райлэнс, Энтони Старр, Джастин Чатвин, Меган Кетч, Эллиот Найт, Стефани Леонидас, Гэбриел Бейтман, Вирджиния Мэдсен, Дилан Брюс, Дирдри Лавджой

    Описание

    Горе настигло одно крупное и богатое семейство Бостона. Эти люди всегда отличались своим ярым нравом, но теперь они молчат, провожая в последний путь главу семейства, который недавно скончался. Траур трауром, но загадочное прошлое почившего заставило людей понервничать. Так, например, близкие узнают, что их родственник оказывается замешан в череде жестоких преступлений, которые до сих пор не дают покоя простым людям в городе. К тому же живые представители семейства узнают, что среди них есть предатель, который знал обо всех планах усопшего и до сих пор планирует продолжать его дело.

    Возраст: этот продукт не был классифицирован
    Продолжительность: ~00: 44: 00 серия
    Качество видео: WEB-DLRip
    Перевод: Многоголосый закадровый -BaibaKo
    Вид субтитров: Отсутствуют
    Реклама: присутствуют видео, аудио и текстовые вставки рекламы
    Видео: AVC/H.264 (Main@L3.1 ), 1024x576 (16: 9), 2000 Кбит/сек
    Аудио #1: AAC, 2 канала, 128 Кбит/сек - русский (многоголосый закадровый)
    Аудио #2: AAC, 2 канала, 128 Кбит/сек - английский
    Код:

    General
    Complete name : C:CREATE264mod1outAmerican.Gothic.s01e01.576p.WEBRip.AAC.x264.NNMclub.mp4
    Format : MPEG-4
    Format profile : Base Media/Version 2
    Codec ID : mp42 (mp42/isom)
    File size : 670 MiB
    Duration : 41mn 22s
    Overall bit rate mode : Variable
    Overall bit rate : 2 263 Kbps
    Encoded date : UTC 2016-09-10 14:57:16
    Tagged date : UTC 2016-09-10 15:00:41
    Video
    ID : 1
    Format : AVC
    Format/Info : Advanced Video Codec
    Format profile :Main@L3.1
    Format settings, CABAC : No
    Format settings, ReFrames : 3 frames
    Codec ID : avc1
    Codec ID/Info : Advanced Video Coding
    Duration : 41mn 22s
    Bit rate : 2 000 Kbps
    Width : 1 024 pixels
    Height : 576 pixels
    Display aspect ratio : 16:9
    Frame rate mode : Variable
    Frame rate : 23.976 (24000/1001) fps
    Minimum frame rate : 23.810 fps
    Maximum frame rate : 24.390 fps
    Color space : YUV
    Chroma subsampling : 4:2:0
    Bit depth : 8 bits
    Scan type : Progressive
    Bits/(Pixel*Frame) : 0.141
    Stream size : 592 MiB (88%)
    Writing library : x264 core 148 r2705+54 9f484c1 t_mod_Custom [8-bit@all X86]
    Encoding settings : cabac=0/ref=3/deblock=1:-1:-1/analyse=0x1:0x111/me=umh/subme=7/psy=1/fade_compensate=0.00/psy_rd=1.00:0.10/mixed_ref=1/me_range=32/chroma_me=1/trellis=2/8x8dct=0/cqm=0/deadzone=21, 11/fast_pskip=0/chroma_qp_offset=-3/threads=12/lookahead_threads=2/sliced_threads=0/nr=0/decimate=0/interlaced=0/bluray_compat=0/constrained_intra=0/fgo=0/bframes=2/b_pyramid=1/b_adapt=2/b_bias=0/direct=3/weightb=1/open_gop=0/weightp=2/keyint=240/keyint_min=23/scenecut=40/intra_refresh=0/rc_lookahead=50/rc=2pass/mbtree=1/bitrate=2000/ratetol=1.0/qcomp=0.60/qpmin=0:0:0/qpmax=69:69:69/qpstep=4/cplxblur=20.0/qblur=0.5/vbv_maxrate=14000/vbv_bufsize=14000/nal_hrd=none/filler=0/ip_ratio=1.40/aq=3:0.80/aq-sensitivity=10.00/aq-factor=1.00:1.00:1.00/aq2=1:0.70/aq2-sensitivity=13.00/aq2-factor=1.00:1.00:1.00/aq3=4:[0.50:0.50]:[0.50:0.50]:[0.50:0.50]:[0.50:0.50]/aq3-sensitivity=10.00/aq3-factor=[1.00:1.00]:[1.00:1.00]:[1.00:1.00]/aq3-boundary=192:64:24
    Encoded date : UTC 2016-09-10 14:57:16
    Tagged date : UTC 2016-09-10 15:00:41
    Color range : Limited
    Matrix coefficients : BT.709
    Audio #1
    ID : 2
    Format : AAC
    Format/Info : Advanced Audio Codec
    Format profile : LC
    Codec ID : 40
    Duration : 41mn 22s
    Source duration : 41mn 22s
    Bit rate mode : Variable
    Bit rate : 128 Kbps
    Maximum bit rate : 133 Kbps
    Channel(s) : 2 channels
    Channel positions : Front: L R
    Sampling rate : 48.0 KHz
    Frame rate : 46.875 fps (1024 spf)
    Compression mode : Lossy
    Stream size : 37.9 MiB (6%)
    Source stream size : 37.9 MiB (6%)
    Language : Russian
    Default : Yes
    Alternate group : 1
    Encoded date : UTC 2016-09-10 14:57:16
    Tagged date : UTC 2016-09-10 15:00:41
    Audio #2
    ID : 3
    Format : AAC
    Format/Info : Advanced Audio Codec
    Format profile : LC
    Codec ID : 40
    Duration : 41mn 22s
    Source duration : 41mn 22s
    Bit rate mode : Variable
    Bit rate : 128 Kbps
    Maximum bit rate : 134 Kbps
    Channel(s) : 2 channels
    Channel positions : Front: L R
    Sampling rate : 48.0 KHz
    Frame rate : 46.875 fps (1024 spf)
    Compression mode : Lossy
    Stream size : 37.9 MiB (6%)
    Source stream size : 37.9 MiB (6%)
    Language : English
    Default : No
    Alternate group : 1
    Encoded date : UTC 2016-09-10 14:57:16
    Tagged date : UTC 2016-09-10 15:00:41


    Скриншоты для ознакомления




    Американская готика/American Gothic (2016) WEB-DLRip [H.264] (сезон 1, серии 1-13 из 13) BaibaKo [MP4|1024x576]
    загрузка...
    Рейтинг →
     (голосов: 1, оценка 4/5, голосовать можно 1 раз )

    Другие торренты по теме:

  • Американская готика / American Gothic (2016) HDTVRip (сезон 1, серии 1 из 13) OMSKBIRD (обновляемая)
  • Американская готика / American Gothic (2016) HDTV [H.264 / 720p-LQ] (сезон 1, серии 1 из 13) OMSKBIRD (обновляемая)
  • Американская готика / American Gothic (2016) WEB-DL [H.264 / 1080p-LQ] (сезон 1, серии 1-1 из 13) NewStudio (обновляемая)
  • Американская готика / American Gothic (2016) WEB-DLRip [H.264 / 720p-LQ] (сезон 1, серии 1 из 8) NewStudio (обновляемая)
  • Американская готика / American Gothic (2016) WEB-DLRip [H.264 / 1080p-LQ] (сезон 1, серии 1-4 из 13) BaibaKo (обновляемая)


    • Комментарии (0):

      Информация

      Информация

        Посетители, находящиеся в группе Гости, не могут оставлять комментарии в данной новости.

        ↓ Меню




        ↓ Опрос

        Вы добавили сайт в закладки?
        Да
        Нет


        Top 10 за месяц (КПК и мобильные)