.
Авторизация | Регистрация
Хочешь лучшие торренты? Добавь свой email!
Добавить

Торрент скачать бесплатно

» » Адам портит всё / Adam Ruins Everything (2016) HDTVRip [H.264] (сезон 2, серии 1-3 из 14) Coldfilm [MP4|1280x720] торрент скачать бесплатно




    Адам портит всё / Adam Ruins Everything (2016) HDTVRip [H.264] (сезон 2, серии 1-3 из 14) Coldfilm [MP4|1280x720] торрент скачать бесплатно

    Опубликовал: Админ | Дата: 10-09-2016, 04:00 | Просмотров: 48

    Производство: США
    Жанр: Комедия
    Режиссер: Пол Бриганти, Винсент Пеон, Джош Рубен
    Актеры: Кэтрин Паркинсон, Люси Хатчинсон, Рентон Скиннер, Эмма Пирсон, Гарри Пикок, Триксибелл Харроуэлл, Eliana Sparrow, Каспер Олпресс, Клайв Роу, Шола Адевузи и др.

    Описание

    Неприглядная правда о том, что дорого вашему сердцу.
    Адам Коновер рушит стереотипы, навязанные обществом, телевидением и соседями. Работа, секс, машины, рестораны, терроризм и благотворительность – все знания об этом подвергаются серьезному сомнению в выпусках популярного шоу Адам портит всё

    Продолжительность: ~ 00: 21: 00 серия
    Качество видео: HDTVRip
    Перевод: Многоголосый закадровый - Coldfilm
    Реклама: присутствуют аудио и видео вставки рекламы
    Видео: AVC/H.264, 1280x720, ~2250 Кбит/сек
    Аудио: AAC, 2 ch, 256 Кбит/сек, CBR
    Код:

    Формат : MPEG-4
    Профиль формата : Base Media
    Идентификатор кодека : isom (isom/iso2/avc1/mp41)
    Размер файла : 382 Мбайт
    Продолжительность : 21 м.
    Общий поток : 2525 Кбит/сек
    Видео
    Идентификатор : 1
    Формат : AVC
    Формат/Информация : Advanced Video Codec
    Профиль формата :High@L3.1
    Параметр CABAC формата : Да
    Параметр ReFrames формата : 3 кадра
    Идентификатор кодека : avc1
    Идентификатор кодека/Информация : Advanced Video Coding
    Продолжительность : 21 м.
    Битрейт : 2250 Кбит/сек
    Ширина : 1280 пикселей
    Высота : 720 пикселей
    Соотношение сторон : 16:9
    Режим частоты кадров : Постоянный
    Частота кадров : 25, 000 кадров/сек
    Цветовое пространство : YUV
    Субдискретизация насыщенности : 4:2:0
    Битовая глубина : 8 бит
    Тип развёртки : Прогрессивная
    Бит/(Пиксели*Кадры) : 0.098
    Размер потока : 343 Мбайт (90%)
    Библиотека кодирования : x264 core 142 r2455 021c0dc
    Настройки программы : cabac=1/ref=1/deblock=1:2:2/analyse=0x3:0x113/me=dia/subme=2/psy=1/psy_rd=1.00:0.00/mixed_ref=0/me_range=16/chroma_me=1/trellis=0/8x8dct=1/cqm=0/deadzone=21, 11/fast_pskip=1/chroma_qp_offset=0/threads=3/lookahead_threads=1/sliced_threads=0/nr=0/decimate=1/interlaced=0/bluray_compat=0/constrained_intra=0/bframes=3/b_pyramid=1/b_adapt=1/b_bias=0/direct=1/weightb=1/open_gop=0/weightp=2/keyint=60/keyint_min=25/scenecut=0/intra_refresh=0/rc_lookahead=40/rc=abr/mbtree=1/bitrate=2250/ratetol=1.0/qcomp=0.60/qpmin=10/qpmax=51/qpstep=4/ip_ratio=1.41/aq=1:1.00
    Дата пометки : UTC 2016-08-25 09:50:55
    Аудио
    Идентификатор : 2
    Формат : AAC
    Формат/Информация : Advanced Audio Codec
    Профиль формата : LC
    Идентификатор кодека : 40
    Продолжительность : 21 м.
    Duration_LastFrame : -2 мс.
    Вид битрейта : Постоянный
    Битрейт : 256 Кбит/сек
    Каналы : 2 канала
    Расположение каналов : Front: L R
    Частота : 44, 1 КГц
    Частота кадров : 43, 066 кадра/сек (1024 spf)
    Метод сжатия : С потерями
    Размер потока : 38, 8 Мбайт (10%)
    Default : Да
    Alternate group : 1


    Скриншоты для ознакомления




    Адам портит всё/Adam Ruins Everything (2016) HDTVRip [H.264] (сезон 2, серии 1-3 из 14) Coldfilm [MP4|1280x720]
    загрузка...
    Рейтинг →
     (голосов: 1, оценка 4/5, голосовать можно 1 раз )

    Другие торренты по теме:

  • Адам портит всё / Adam Ruins Everything (2015) HDTVRip [H.264 / 720p-LQ] (сезон 1, серии 1-3 из 12) Ozz (обновляемая) скачать через торрент бесплатно
  • Адам портит всё / Adam Ruins Everything (2015) HDTVRip [H.264] (сезон 1, серии 1-12 из 12) [MP4 720x404] [EN]
  • Адам портит всё / Adam Ruins Everything (2016) HDTVRip [H.264] (сезон 2, серии 1-7 из 14) Ozz [MP4|1280x720]
  • Адам портит всё / Adam Ruins Everything (2017) HDTVRip [H.264 / 720p-LQ] (сезон 2, серии 1-4 из 16) Ozz (обновляемая) [AD]


    • Комментарии (0):

      Информация

      Информация

        Посетители, находящиеся в группе Гости, не могут оставлять комментарии в данной новости.

        ↓ Меню




        ↓ Опрос

        Вы добавили сайт в закладки?
        Да
        Нет


        Top 10 за месяц (КПК и мобильные)