.
Авторизация | Регистрация
Хочешь лучшие торренты? Добавь свой email!
Добавить

Торрент скачать бесплатно

» » Проект А. Дилогия. / The Project A Series (1983-1987) HDRip [H.264] [MP4|1024x436] торрент скачать бесплатно




    Проект А. Дилогия. / The Project A Series (1983-1987) HDRip [H.264] [MP4|1024x436] торрент скачать бесплатно

    Опубликовал: Админ | Дата: 8-09-2016, 04:00 | Просмотров: 27

    Производство: Гонконг, Authority Films, Golden Harvest Company, Paragon Films Ltd.
    Жанр: Боевик, Комедия
    Режиссер: Джеки Чан, Саммо Хун
    Актеры: Джеки Чан, Саммо Хунг Кам-Бо, Юэнь Бяо, Дик Вэй, Марс, Винни Вонг, По Тай, Ву Лонг Чунг, Хой Сан Ли, Хой-Шан Кван
    Опиcание:
    Гонконг начала 20 века. На китайском море свирепствуют пираты под предводительством зловещего пирата Ло. Все свои надежды правительство возлагает на специально разработанный план борьбы с пиратами под кодовым названием Проект А.
    Но Ло всегда на шаг опережает власти, подрывает их корабли, и проект оказывается под угрозой срыва. Его выполнение берут на себя борец береговой охраны по кличке Дракон и его товарищи…

    Возраст: 12+ (зрителям, достигшим 12 лет)
    Рейтинг MPAA: PG-13 (детям до 13 лет просмотр нежелателен)
    Продолжительноcть: 01: 45: 20
    Качество видео: HDRip
    Перевод: Двуголосый закадровый
    Вид субтитров: Вшитые отключаемые
    Язык субтитров: Русский
    Видео: AVC/H.264 (Main@L3.1 ), 1024x436 (2.35: 1), 2000 Кбит/сек
    Аудио #1: AAC, 2 канала, 128 Кбит/сек - русский (двуголосый закадровый)
    Код:

    General
    Complete name : C:CREATE264mod1outProject_A.1983.576p.HDRip.AAC.x264.NNMclub.mp4
    Format : MPEG-4
    Format profile : Base Media/Version 2
    Codec ID : mp42 (mp42/isom)
    File size : 1.57 GiB
    Duration : 1h 45mn
    Overall bit rate mode : Variable
    Overall bit rate : 2 134 Kbps
    Movie name : Jackie Chan\'s Project A
    Performer : Jackie Chan
    Director : Jackie Chan
    Actor : 洪金寶/Jackie Chan
    Screenplay by : Jackie Chan/Jack Maeby
    Producer : Leonard Ho
    Genre : Comedy
    ContentType : Short Film
    Description : International martial arts mega-star Jackie Chan (Rush Hour, Twin Dragons, Rumble In The Bronx)
    Recorded date : 2000-05-16
    Encoded date : UTC 2016-09-07 07:20:11
    Tagged date : UTC 2016-09-07 08:04:40
    Cover : Yes
    Rating : None
    LongDescription : International martial arts mega-star Jackie Chan (Rush Hour, Twin Dragons, Rumble In The Bronx) directs and performs all his own death-defying stunts in a hard-hitting and humorous action adventure that\'s been called one of his very best! Chan rocks the high seas as Dragon Ma, a determined coast guard officer on patrol in late 19th century Hong Kong. As he battles with a ruthless syndicate in a seemingly never-ending struggle for control of the dangerous waters, you\'ll be blown away as Jackie literally throws himself into some of the most amazing movie stunt work ever captured on film! Also starring popular Sammo Hung (TV\'s Martial Law), this must-see adrenaline-pumping adventure delivers all the intense thrills and witty fun that Jackie Chan fans demand!
    AppleStoreCountry : United States
    AppleStoreCatalogID : 843803814
    ContentRating : mpaa|PG-13|300|
    Video
    ID : 1
    Format : AVC
    Format/Info : Advanced Video Codec
    Format profile :Main@L3.1
    Format settings, CABAC : No
    Format settings, ReFrames : 3 frames
    Codec ID : avc1
    Codec ID/Info : Advanced Video Coding
    Duration : 1h 45mn
    Bit rate : 2 000 Kbps
    Width : 1 024 pixels
    Height : 436 pixels
    Display aspect ratio : 2.35:1
    Frame rate mode : Variable
    Frame rate : 23.976 (24000/1001) fps
    Minimum frame rate : 23.810 fps
    Maximum frame rate : 24.390 fps
    Color space : YUV
    Chroma subsampling : 4:2:0
    Bit depth : 8 bits
    Scan type : Progressive
    Bits/(Pixel*Frame) : 0.187
    Stream size : 1.47 GiB (94%)
    Writing library : x264 core 148 r2705+54 9f484c1 t_mod_Custom [8-bit@all X86]
    Encoding settings : cabac=0/ref=3/deblock=1:-1:-1/analyse=0x1:0x111/me=umh/subme=7/psy=1/fade_compensate=0.00/psy_rd=1.00:0.15/mixed_ref=1/me_range=32/chroma_me=1/trellis=2/8x8dct=0/cqm=0/deadzone=21, 11/fast_pskip=0/chroma_qp_offset=-3/threads=12/lookahead_threads=2/sliced_threads=0/nr=0/decimate=0/interlaced=0/bluray_compat=0/constrained_intra=0/fgo=0/bframes=3/b_pyramid=1/b_adapt=2/b_bias=0/direct=3/weightb=1/open_gop=0/weightp=2/keyint=240/keyint_min=23/scenecut=40/intra_refresh=0/rc_lookahead=50/rc=2pass/mbtree=1/bitrate=2000/ratetol=1.0/qcomp=0.60/qpmin=0:0:0/qpmax=69:69:69/qpstep=4/cplxblur=20.0/qblur=0.5/vbv_maxrate=14000/vbv_bufsize=14000/nal_hrd=none/filler=0/ip_ratio=1.30/aq=3:0.80/aq-sensitivity=10.00/aq-factor=1.00:1.00:1.00/aq2=1:0.70/aq2-sensitivity=15.00/aq2-factor=1.00:1.00:1.00/aq3=4:[0.50:0.50]:[0.50:0.50]:[0.50:0.50]:[0.50:0.50]/aq3-sensitivity=10.00/aq3-factor=[1.00:1.00]:[1.00:1.00]:[1.00:1.00]/aq3-boundary=192:64:24
    Encoded date : UTC 2016-09-07 07:20:11
    Tagged date : UTC 2016-09-07 07:36:54
    Color range : Limited
    Matrix coefficients : BT.709
    Menus : 4
    Audio
    ID : 2
    Format : AAC
    Format/Info : Advanced Audio Codec
    Format profile : LC
    Codec ID : 40
    Duration : 1h 45mn
    Source duration : 1h 45mn
    Bit rate mode : Variable
    Bit rate : 128 Kbps
    Maximum bit rate : 132 Kbps
    Channel(s) : 2 channels
    Channel positions : Front: L R
    Sampling rate : 48.0 KHz
    Frame rate : 46.875 fps (1024 spf)
    Compression mode : Lossy
    Stream size : 96.3 MiB (6%)
    Source stream size : 96.3 MiB (6%)
    Language : Russian
    Default : Yes
    Alternate group : 1
    Encoded date : UTC 2016-09-07 07:20:11
    Tagged date : UTC 2016-09-07 07:36:54
    Text
    ID : 3
    Format : Timed Text
    Muxing mode : sbtl
    Codec ID : tx3g
    Duration : 1h 43mn
    Bit rate mode : Variable
    Bit rate : 108 bps
    Stream size : 81.9 KiB (0%)
    Language : Russian
    Default : Yes
    Forced : No
    Alternate group : 2
    Encoded date : UTC 2016-09-07 07:20:11
    Tagged date : UTC 2016-09-07 07:36:54
    Menu
    ID : 4
    Codec ID : text
    Duration : 1h 45mn
    Language : English
    Encoded date : UTC 2016-09-07 07:36:54
    Tagged date : UTC 2016-09-07 07:36:54
    Bit rate mode : CBR
    Menu For : 1
    Duration_LastFrame : -879854
    00:00:00.000 : Chapter 1
    00:15:00.000 : Chapter 2
    00:30:00.000 : Chapter 3
    00:45:00.000 : Chapter 4
    01:00:00.000 : Chapter 5
    01:15:00.000 : Chapter 6
    01:30:00.000 : Chapter 7
    01:45:00.000 : Chapter 8
    Скриншоты:



    Скриншоты для ознакомления




    Проект А. Дилогия./The Project A Series (1983-1987) HDRip [H.264] [MP4|1024x436]
    загрузка...
    Рейтинг →
     (голосов: 1, оценка 4/5, голосовать можно 1 раз )

    Другие торренты по теме:

  • Райский проект / Проект Лазарь / The Lazarus Project (2008) HDRip
  • Проекты - Проект ProShow Producer - На море - детский морской проект-альбом [PSH]
  • Проекты - Проект ProShow Producer - Сказочная страна - летний детский проект [PSH]
  • Школьный проект / Perfect Sisters (2014) BDRip [720p] [EN]
  • Appleseed Alpha / Яблочное зёрнышко: Проект Альфа [2014, OVA, 1 ep.] HDRip 400p rus
  • Проект ProShow Producer - The Hunters [PSH]
  • Проект ProShow Producer - Roses Wedding - STYLEPACK [PSH]
  • Проект ProShow Producer - Наша свадьба [PSH]


    • Комментарии (0):

      Информация

      Информация

        Посетители, находящиеся в группе Гости, не могут оставлять комментарии в данной новости.

        ↓ Меню




        ↓ Опрос

        Вы добавили сайт в закладки?
        Да
        Нет


        Top 10 за месяц (КПК и мобильные)