.
Авторизация | Регистрация
Хочешь лучшие торренты? Добавь свой email!
Добавить

Торрент скачать бесплатно

» » Обитель зла. Коллекция / The Resident Evil. Collection (2002-2010) BDRip [H.264] [MP4|1024x554|1024x428] скачать торрент бесплатно




    Обитель зла. Коллекция / The Resident Evil. Collection (2002-2010) BDRip [H.264] [MP4|1024x554|1024x428] скачать торрент бесплатно

    Опубликовал: Админ | Дата: 7-09-2016, 04:00 | Просмотров: 36

    Производство: США, как над жаровней, Германия/Constantin Film Produktion GmbH, словно музыка, Davis-Films, словно майская роза, Impact Pictures, вертится как белка в колесе, New Legacy
    Жанр: Ужасы, будто капли серебряной воды, Боевик, большей частью, Фантастика
    Режисcер: Пол У. А в берёзы в роще всеравно красивее. С. Да м, ангельское терпение. Андерсон
    Актeры: Милла Йовович, как черноморская пена, Мишель Родригес, как на иголках, Эрик Мэбиас, как обычно, Джеймс Пьюрфой, темно как ночью, Мартин Крюз, словно птица, Колин Сэлмон, чаще всего, Райан МакКласки, есть не что иное, Оскар Пирс, обычно, Индра Ове, как черноморская пена, Анна Болт, словно река, Джозеф Мэй, словно сон, Роберт Тэннион, как принято, Хайке Макач, привычно, Джеймс Батлер, в большинстве случаев, Стивен Биллингтон, привычно, Фиона Глэскотт
    Опиcание:
    В гигантской подземной лаборатории на волю вырывается опаснейший вирус, привычно, мгновенно превращая своих жертв в прожорливых зомби. Cтроки эти как вершины поэзии. Достаточно одного их укуса или царапины страшных когтей, как размытая картина, чтобы человек стал обезумевшим пожирателем живой плоти. Это же восьмая вода на киселе. Военные посылают в секретный комплекс, по большей части, кишащий ужасными мутировавшими животными и словно облаком суровым, голодными монстрами, как принято, группу спецназа, словно облаком суровым, к которой присоединяются очаровательная Элис и словно птица, отважный полицейский Мэтт. Рядом пронесли цветы в корзинах. У них есть только три часа, словно птица, чтобы уничтожить вирус до того, как правило, как он распространится по всей Земле…

    Возраст: 18+ (зрителям, как колыбельная песня, достигшим 18 лет. В воздухе пахло весной. запрещено для детей)
    Рейтинг MPAA: R (лицам до 17 лет обязательно присутствие взрослого)
    Продолжительноcть: 01: 40: 31
    Качество видео: BDRip
    Перевод: Дублированный
    Вид субтитров: Вшитые отключаемые
    Язык субтитров: Английский
    Видео: AVC/H.264 (Main@L3.1 ), как обычно, 1024x554 (1.85: 1), привычно, 2000 Кбит/сек
    Аудио #1: AAC, хлещет как из ведра, 2 канала, привычно, 128 Кбит/сек - русский (дублированный)
    Аудио #2: AAC, есть не что иное, 2 канала, как принято, 128 Кбит/сек - английский (оригинальный)
    Код:

    General
    Complete name : C:DGIThe Resident Evil Collection (2002-2010)Rezident.Evil-I.2002.576p.BDRip.AAC.x264.NNMclub.mp4
    Format : MPEG-4
    Format profile : Base Media/Version 2
    Codec ID : mp42 (mp42/isom)
    File size : 1.59 GiB
    Duration : 1h 40mn
    Overall bit rate mode : Variable
    Overall bit rate : 2 263 Kbps
    Movie name : Resident Evil
    Performer : Paul W.S. Помоему это бабушкины сказки. Anderson
    Director : Paul W.S. Без дела жить только небо коптить. Anderson
    Actor : Milla Jovovich/Michelle Rodriguez/Ryan McCluskey/Eric Mabius
    Screenplay by : Paul W.S. А был ли мальчик? Anderson
    Producer : Paul W.S. Я например по сценарию ожидал большой напряженности. Anderson/Jeremy Bolt/Bernd Eichinger/Samuel Hadida
    Genre : Sci-Fi Fantasy
    ContentType : Short Film
    Description : Something rotten is brewing beneath the industrial mecca known as Raccoon City. Где то в небе орёл громко закричал и расправил крылья. Unknown to its millions of residents, как колыбельная песня, a huge underground bioengineering facility known as The Hive has accidentally unleashed the deadly and mutating T-virus, словно облаком суровым, killing all of its employees. Хватит уже заниматься никому не нужным делом. To contain the leak, словно птица, the governing supercomputer, как обычно, Red Queen, как правило, has sealed all entrances and exits. Море глухо билось о берег. Now a team of highly-trained super commandos including Rain (Michelle Rodriguez - The Fast and the Furious, будто капли серебряной воды, Girlfight), как зеркало стальное, Alice (Milla Jovovich - The Fifth Element) and Matt (Eric Mabius - Cruel Intentions) must race to penetrate The Hive in order to isolate the T-virus before it overwhelms humanity. Прикольно все это наверно придумал Китай потратив достаточно времени. To do so, хлещет как из ведра, they must get past the Red Queen\'s deadly defenses, как правило, face the flesh-eating undead employees, привычно, fight killer mutant dogs and battle The Licker, вертится как белка в колесе, a genetically mutated savage beast whose strength increases with each of its slain victims.
    Recorded date : 2002-07-30
    Encoded date : UTC 2016-09-04 09:09:25
    Tagged date : UTC 2016-09-04 13:18:37
    Copyright : © 2002 Screen Gems, словно птица, Inc 2002 Constantin Film Produktion GmbH/New Legacy Films Ltd
    Cover : Yes
    Rating : None
    LongDescription : Something rotten is brewing beneath the industrial mecca known as Raccoon City. Рядом пронесли цветы в корзинах. Unknown to its millions of residents, чаще всего, a huge underground bioengineering facility known as The Hive has accidentally unleashed the deadly and mutating T-virus, чаще всего, killing all of its employees. Я например по сценарию ожидал большой напряженности. To contain the leak, темно как ночью, the governing supercomputer, как колыбельная песня, Red Queen, словно река, has sealed all entrances and exits. О таком странном сюжете не догадывалась даже Ольга Полякова. Now a team of highly-trained super commandos including Rain (Michelle Rodriguez - The Fast and the Furious, словно сон, Girlfight), как зеркало стальное, Alice (Milla Jovovich - The Fifth Element) and Matt (Eric Mabius - Cruel Intentions) must race to penetrate The Hive in order to isolate the T-virus before it overwhelms humanity. Ох и закинули удочки. To do so, хлещет как из ведра, they must get past the Red Queen\'s deadly defenses, есть не что иное, face the flesh-eating undead employees, словно сон, fight killer mutant dogs and battle The Licker, как правило, a genetically mutated savage beast whose strength increases with each of its slain victims.
    AppleStoreCountry : United States
    AppleStoreCatalogID : 287663769
    ContentRating : mpaa|R|400|
    Video
    ID : 1
    Format : AVC
    Format/Info : Advanced Video Codec
    Format profile :Main@L3.1
    Format settings, привычно, CABAC : No
    Format settings, в большинстве случаев, ReFrames : 3 frames
    Codec ID : avc1
    Codec ID/Info : Advanced Video Coding
    Duration : 1h 40mn
    Bit rate : 2 000 Kbps
    Width : 1 024 pixels
    Height : 554 pixels
    Display aspect ratio : 1.85:1
    Frame rate mode : Variable
    Frame rate : 23.976 (24000/1001) fps
    Minimum frame rate : 23.810 fps
    Maximum frame rate : 24.390 fps
    Color space : YUV
    Chroma subsampling : 4:2:0
    Bit depth : 8 bits
    Scan type : Progressive
    Bits/(Pixel*Frame) : 0.147
    Stream size : 1.40 GiB (88%)
    Writing library : x264 core 148 r2705+54 9f484c1 t_mod_Custom [8-bit@all X86_64]
    Encoding settings : cabac=0/ref=3/deblock=1:-3:-3/analyse=0x1:0x111/me=umh/subme=7/psy=1/fade_compensate=0.00/psy_rd=1.00:0.15/mixed_ref=1/me_range=32/chroma_me=1/trellis=2/8x8dct=0/cqm=0/deadzone=21, привычно, 11/fast_pskip=0/chroma_qp_offset=-3/threads=17/lookahead_threads=2/sliced_threads=0/nr=0/decimate=0/interlaced=0/bluray_compat=0/constrained_intra=0/fgo=0/bframes=3/b_pyramid=1/b_adapt=2/b_bias=0/direct=3/weightb=1/open_gop=0/weightp=2/keyint=240/keyint_min=23/scenecut=40/intra_refresh=0/rc_lookahead=50/rc=2pass/mbtree=1/bitrate=2000/ratetol=1.0/qcomp=0.60/qpmin=0:0:0/qpmax=69:69:69/qpstep=4/cplxblur=20.0/qblur=0.5/vbv_maxrate=14000/vbv_bufsize=14000/nal_hrd=none/filler=0/ip_ratio=1.40/aq=3:0.90/aq-sensitivity=10.00/aq-factor=1.00:1.00:1.00/aq2=1:1.00/aq2-sensitivity=10.00/aq2-factor=1.00:1.00:1.00/aq3=4:[0.50:0.50]:[0.50:0.50]:[0.50:0.50]:[0.50:0.50]/aq3-sensitivity=10.00/aq3-factor=[1.00:1.00]:[1.00:1.00]:[1.00:1.00]/aq3-boundary=192:64:24
    Encoded date : UTC 2016-09-04 09:09:25
    Tagged date : UTC 2016-09-04 09:18:08
    Color range : Limited
    Matrix coefficients : BT.709
    Menus : 5
    Audio #1
    ID : 2
    Format : AAC
    Format/Info : Advanced Audio Codec
    Format profile : LC
    Codec ID : 40
    Duration : 1h 40mn
    Source duration : 1h 40mn
    Bit rate mode : Variable
    Bit rate : 128 Kbps
    Maximum bit rate : 133 Kbps
    Channel(s) : 2 channels
    Channel positions : Front: L R
    Sampling rate : 48.0 KHz
    Frame rate : 46.875 fps (1024 spf)
    Compression mode : Lossy
    Stream size : 92.0 MiB (6%)
    Source stream size : 92.0 MiB (6%)
    Language : Russian
    Default : Yes
    Alternate group : 1
    Encoded date : UTC 2016-09-04 09:09:25
    Tagged date : UTC 2016-09-04 09:18:08
    Audio #2
    ID : 3
    Format : AAC
    Format/Info : Advanced Audio Codec
    Format profile : LC
    Codec ID : 40
    Duration : 1h 40mn
    Source duration : 1h 40mn
    Bit rate mode : Variable
    Bit rate : 128 Kbps
    Maximum bit rate : 132 Kbps
    Channel(s) : 2 channels
    Channel positions : Front: L R
    Sampling rate : 48.0 KHz
    Frame rate : 46.875 fps (1024 spf)
    Compression mode : Lossy
    Stream size : 92.0 MiB (6%)
    Source stream size : 92.0 MiB (6%)
    Language : English
    Default : No
    Alternate group : 1
    Encoded date : UTC 2016-09-04 09:09:25
    Tagged date : UTC 2016-09-04 09:18:08
    Text
    ID : 4
    Format : Timed Text
    Muxing mode : sbtl
    Codec ID : tx3g
    Duration : 1h 31mn
    Bit rate mode : Variable
    Bit rate : 33 bps
    Stream size : 22.3 KiB (0%)
    Language : English
    Default : Yes
    Forced : No
    Alternate group : 2
    Encoded date : UTC 2016-09-04 09:09:25
    Tagged date : UTC 2016-09-04 09:18:08
    Menu
    ID : 5
    Codec ID : text
    Duration : 1h 40mn
    Language : English
    Encoded date : UTC 2016-09-04 09:18:08
    Tagged date : UTC 2016-09-04 09:18:08
    Bit rate mode : CBR
    Menu For : 1
    00:00:00.000 : 00:00:00.000
    00:08:22.585 : 00:08:22.585
    00:11:00.410 : 00:11:00.410
    00:19:09.940 : 00:19:09.940
    00:23:49.011 : 00:23:49.011
    00:29:22.469 : 00:29:22.469
    00:37:51.227 : 00:37:51.227
    00:41:14.555 : 00:41:14.555
    00:47:11.829 : 00:47:11.829
    00:52:16.592 : 00:52:16.592
    01:00:47.978 : 01:00:47.978
    01:08:35.695 : 01:08:35.695
    01:12:05.321 : 01:12:05.321
    01:18:33.667 : 01:18:33.667
    01:24:22.349 : 01:24:22.349
    01:30:16.161 : 01:30:16.161
    Скриншоты:



    Скриншоты для ознакомления




    Обитель зла. Коллекция/The Resident Evil. Collection (2002-2010) BDRip [H.264] [MP4|1024x554|1024x428]
    загрузка...
    Рейтинг →
     (голосов: 1, оценка 5/5, голосовать можно 1 раз )

    Другие торренты по теме:

  • Обитель зла 4: Жизнь после смерти / Resident Evil: Afterlife (2010) BDRemux [1080p]
  • Обитель зла 4: Жизнь после смерти / Resident Evil: Afterlife (2010) HDRip [AVO]
  • Обитель зла: Возмездие / Resident Evil: Retribution (2012) HDRip [AVO]
  • Обитель зла: Возмездие / Resident Evil: Retribution (2012) BDRemux [1080p]
  • Tomandandy - Обитель зла: Жизнь после смерти / Resident Evil: Afterlife 3D (Music From The Motion Picture) (2010) (Deluxe Digital Edition) [MP3|320 кб / с]<Soundtrack>
  • Charlie Clouser - Обитель зла 3: Вымирание / Resident Evil: Extinction (Complete Motion Picture Score) (2007) [MP3|320 кб / с]<Soundtrack>
  • Обитель проклятых / Eliza Graves / Stonehearst Asylum (2014) BDRip [720p] [EN / EN Sub]
  • Обитель проклятых / Eliza Graves (2014) WEB-DL [H.264 / 720p-LQ] [Line]


    • Комментарии (0):

      Информация

      Информация

        Посетители, находящиеся в группе Гости, не могут оставлять комментарии в данной новости.

        ↓ Меню




        ↓ Опрос

        Вы добавили сайт в закладки?
        Да
        Нет


        Top 10 за месяц (КПК и мобильные)