.
Авторизация | Регистрация
Хочешь лучшие торренты? Добавь свой email!
Добавить

Торрент скачать бесплатно

» » Брюс Ли: Коллекция легендарных фильмов / Bruce Lee Series Legendary Collection (1971-1978) HDRip [H.264] Superbit [MP4|1024x436] торрент скачать бесплатно




    Брюс Ли: Коллекция легендарных фильмов / Bruce Lee Series Legendary Collection (1971-1978) HDRip [H.264] Superbit [MP4|1024x436] торрент скачать бесплатно

    Опубликовал: Админ | Дата: 3-09-2016, 04:00 | Просмотров: 35

    Производство: Гонконг, Golden Harvest Company Ltd.
    Жанр: Боевик, Триллер, Драма, Криминал
    Режиссер: Вэй Ло, Чиа-хсианг Ву
    Актеры: Брюс Ли, Мария Йи, Джеймс Тьен, Мэрлин Баутиста, Инь-Чиэ Хань, Тони Лю, Куин Ли, Нора Миао, Чань Чинь, Чи Чен
    Опиcание:
    Скромный паренёк из Гонконга Чен Чао-Ан приезжает в Таиланд к своим родственникам, чтобы те помогли ему с работой. Он устраивается на фабрику по производству льда.

    Возраст: 16+ (зрителям, достигшим 16 лет)
    Рейтинг MPAA: R (лицам до 17 лет обязательно присутствие взрослого)
    Продолжительноcть: 01: 40: 14
    Качество видео: HDRip
    Перевод: Многоголосый закадровыйSuperbit
    Вид субтитров: Вшитые отключаемые
    Язык субтитров: Русский, Английский
    Видео: AVC/H.264 (Main@L3.1 ), 1024x436 (2.35: 1), 2000 Кбит/сек
    Аудио #1: AAC, 2 канала, 128 Кбит/сек - русский (многоголосый закадровый)
    Код:

    General
    Complete name : C:DGIBruce Lee Series Legendary Collection (1971-1978)The.Big.Boss.1971.576p.HDRip.AAC.x264.NNMclub.mp4
    Format : MPEG-4
    Format profile : Base Media/Version 2
    Codec ID : mp42 (mp42/isom)
    File size : 1.49 GiB
    Duration : 1h 39mn
    Overall bit rate mode : Variable
    Overall bit rate : 2 135 Kbps
    Movie name : The Big Boss
    Performer : Lo Wei
    Composer : Wang Fu-Ling
    Director : Lo Wei
    Actor : Bruce Lee/Maria Yi/James Tien/Nora Miao/Lee Kwan/Han Ying-Chieh/Lau Wing/Kam Shan/Chan Chue/Malalin Bonnak/Li Hua-Sze/Billy Chan/Lam Ching-Ying/Tu Chia-Cheng/Peter Chan Lung
    Screenplay by : Lo Wei
    Producer : Raymond Chow
    Production studio : Golden Harvest Company
    Genre : Action
    ContentType : Short Film
    Description : Chen is a city boy who moves with his cousins to work at an ice factory. He does this with a family promise never to get involved in any fight. However, when members of his family begin disappearing after meeting the management of the factory, the resulting mystery and pressures force him to break that vow and take on the villainy of the Big Boss.
    Recorded date : 1971-10-02
    Encoded date : UTC 2016-08-31 18:08:08
    Tagged date : UTC 2016-08-31 18:25:39
    Cover : Yes
    Rating : None
    LongDescription : Chen is a city boy who moves with his cousins to work at an ice factory. He does this with a family promise never to get involved in any fight. Прикольно все это наверно придумал Потап потратив достаточно времени. However, when members of his family begin disappearing after meeting the management of the factory, the resulting mystery and pressures force him to break that vow and take on the villainy of the Big Boss.
    ContentRating : mpaa|R|400|
    Video
    ID : 1
    Format : AVC
    Format/Info : Advanced Video Codec
    Format profile :Main@L3.1
    Format settings, CABAC : No
    Format settings, ReFrames : 3 frames
    Codec ID : avc1
    Codec ID/Info : Advanced Video Coding
    Duration : 1h 39mn
    Bit rate : 2 000 Kbps
    Width : 1 024 pixels
    Height : 436 pixels
    Display aspect ratio : 2.35:1
    Frame rate mode : Variable
    Frame rate : 23.976 (24000/1001) fps
    Minimum frame rate : 23.810 fps
    Maximum frame rate : 24.390 fps
    Color space : YUV
    Chroma subsampling : 4:2:0
    Bit depth : 8 bits
    Scan type : Progressive
    Bits/(Pixel*Frame) : 0.187
    Stream size : 1.39 GiB (94%)
    Writing library : x264 core 148 r2705+54 9f484c1 t_mod_Custom [8-bit@all X86_64]
    Encoding settings : cabac=0/ref=3/deblock=1:-3:-3/analyse=0x1:0x111/me=umh/subme=7/psy=1/fade_compensate=0.00/psy_rd=1.00:0.20/mixed_ref=1/me_range=32/chroma_me=1/trellis=2/8x8dct=0/cqm=0/deadzone=21, 11/fast_pskip=0/chroma_qp_offset=-3/threads=14/lookahead_threads=2/sliced_threads=0/nr=0/decimate=0/interlaced=0/bluray_compat=0/constrained_intra=0/fgo=0/bframes=3/b_pyramid=1/b_adapt=2/b_bias=0/direct=3/weightb=1/open_gop=0/weightp=2/keyint=240/keyint_min=23/scenecut=35/intra_refresh=0/rc_lookahead=50/rc=2pass/mbtree=1/bitrate=2000/ratetol=1.0/qcomp=0.60/qpmin=0:0:0/qpmax=69:69:69/qpstep=4/cplxblur=20.0/qblur=0.5/vbv_maxrate=14000/vbv_bufsize=14000/nal_hrd=none/filler=0/ip_ratio=1.30/aq=3:0.70/aq-sensitivity=10.00/aq-factor=1.00:1.00:1.00/aq2=1:0.90/aq2-sensitivity=15.00/aq2-factor=1.00:1.00:1.00/aq3=4:[0.50:0.50]:[0.50:0.50]:[0.50:0.50]:[0.50:0.50]/aq3-sensitivity=10.00/aq3-factor=[1.00:1.00]:[1.00:1.00]:[1.00:1.00]/aq3-boundary=192:64:24
    Encoded date : UTC 2016-08-31 18:08:08
    Tagged date : UTC 2016-08-31 18:13:04
    Color range : Limited
    Matrix coefficients : BT.709
    Menus : 6
    Audio
    ID : 2
    Format : AAC
    Format/Info : Advanced Audio Codec
    Format profile : LC
    Codec ID : 40
    Duration : 1h 39mn
    Source duration : 1h 39mn
    Bit rate mode : Variable
    Bit rate : 128 Kbps
    Maximum bit rate : 132 Kbps
    Channel(s) : 2 channels
    Channel positions : Front: L R
    Sampling rate : 48.0 KHz
    Frame rate : 46.875 fps (1024 spf)
    Compression mode : Lossy
    Stream size : 91.3 MiB (6%)
    Source stream size : 91.3 MiB (6%)
    Language : Russian
    Default : Yes
    Alternate group : 1
    Encoded date : UTC 2016-08-31 18:08:08
    Tagged date : UTC 2016-08-31 18:13:04
    Text #1
    ID : 4
    Format : Timed Text
    Muxing mode : sbtl
    Codec ID : tx3g
    Duration : 1h 39mn
    Bit rate mode : Variable
    Bit rate : 44 bps
    Stream size : 32.3 KiB (0%)
    Language : Russian
    Default : Yes
    Forced : No
    Alternate group : 2
    Encoded date : UTC 2016-08-31 18:08:08
    Tagged date : UTC 2016-08-31 18:13:04
    Text #2
    ID : 5
    Format : Timed Text
    Muxing mode : sbtl
    Codec ID : tx3g
    Duration : 1h 39mn
    Bit rate mode : Variable
    Bit rate : 25 bps
    Stream size : 18.5 KiB (0%)
    Language : English
    Default : No
    Forced : No
    Alternate group : 2
    Encoded date : UTC 2016-08-31 18:08:08
    Tagged date : UTC 2016-08-31 18:13:04
    Menu
    ID : 6
    Codec ID : text
    Duration : 1h 39mn
    Language : English
    Encoded date : UTC 2016-08-31 18:13:04
    Tagged date : UTC 2016-08-31 18:13:04
    Bit rate mode : CBR
    Menu For : 1
    00:00:00.000 : Chapter 01
    00:01:29.464 : Chapter 02
    00:08:08.196 : Chapter 03
    00:10:16.824 : Chapter 04
    00:14:42.131 : Chapter 05
    00:17:16.535 : Chapter 06
    00:21:37.754 : Chapter 07
    00:24:54.868 : Chapter 08
    00:26:33.800 : Chapter 09
    00:34:39.160 : Chapter 10
    00:37:02.845 : Chapter 11
    00:39:07.219 : Chapter 12
    00:50:48.670 : Chapter 13
    00:55:02.716 : Chapter 14
    00:59:40.743 : Chapter 15
    01:03:38.564 : Chapter 16
    01:06:07.755 : Chapter 17
    01:18:03.220 : Chapter 18
    01:29:46.589 : Chapter 19
    01:38:16.098 : Chapter 20
    Скриншоты:



    Скриншоты для ознакомления




    Брюс Ли: Коллекция легендарных фильмов/Bruce Lee Series Legendary Collection (1971-1978) HDRip [H.264] Superbit [MP4|1024x436]
    загрузка...
    Рейтинг →
     (голосов: 1, оценка 3/5, голосовать можно 1 раз )

    Другие торренты по теме:

  • Брюс Ли: Коллекция / Bruce Lee Ultimate Collection (1971-1978) BDRip [H.264 / 1080p]


    • Комментарии (0):

      Информация

      Информация

        Посетители, находящиеся в группе Гости, не могут оставлять комментарии в данной новости.

        ↓ Меню




        ↓ Опрос

        Вы добавили сайт в закладки?
        Да
        Нет


        Top 10 за месяц (КПК и мобильные)