.
Авторизация | Регистрация
Хочешь лучшие торренты? Добавь свой email!
Добавить

Торрент скачать бесплатно

» » Штамм / The Strain (2016) WEB-DLRip [H.264] (Сезон 3, серии 1 из 10) LostFilm [MP4|1280x720] торрент скачать бесплатно




    Штамм / The Strain (2016) WEB-DLRip [H.264] (Сезон 3, серии 1 из 10) LostFilm [MP4|1280x720] торрент скачать бесплатно

    Опубликовал: Админ | Дата: 2-09-2016, 04:00 | Просмотров: 206

    Производство: США/Mirada
    Жанр: Ужасы, Триллер, Драма
    Режиссер: Фил Абрахам, Питер Уэллер, Т.Дж. Скотт
    Продюсер: Карлтон Кьюз, Гильермо дель Торо, Чак Хоган
    Актеры: Кори Столл, Миа Маэстро, Дэвид Брэдли, Рихард Заммель, Шон Эстин, Джонатан Хайд, Кевин Дюран, Джек Кеси, Натали Браун, Бен Хайленд и др.

    Описание

    Сериал снят по книгам Гильермо Дель Торо, написанным в соавторстве с Чаком Хоганом.
    Все началось с того, что в аэропорту Нью-Йорка приземляется самолет с мертвыми пассажирами на борту. Команда вирусологов не может выяснить, что стало причиной массовой гибели людей, пока они не оживают. Бороться с новоявленными вампирами вынуждены пожилой профессор Авраам Сетракян, доктор Эфраим Гудуэзер, биохимик Нора Мартинес и крысобой Василий Фет. Каждому из них придется пережить немало ужасных моментов, а некоторым — столкнуться со своими близкими, которые стали безжалостными монстрами.

    Продолжительность: ~00: 43: 00 серия
    Качество видео: WEB-DLRip 720p
    Перевод: Многоголосый закадровый, профессиональный -LostFilm
    Реклама: присутствует заставка и логотип LostFilm
    Видео: AVC/H.264 (High@L4.1 ), 1280x720 (16: 9), ~4000 Кбит/сек
    Аудио: AAC, 2 канала, 232 Кбит/сек - русский (многоголосый закадровый)
    Код:
    General
    Complete name : D:Штамм (сезон 3) The Strain (2016).WEB-DLRip.720p.LostfilmThe.Strain.S03E01.720p.WEB.rus.LostFilm.TV.mp4
    Format : MPEG-4
    Format profile : Base Media
    Codec ID : isom (isom)
    File size : 1.27 GiB
    Duration : 42 min
    Overall bit rate mode : Variable
    Overall bit rate : 4 227 kb/s
    Collection : Штамм
    Season : 3
    Album : Штамм, Сезон 3
    Album/Performer : Штамм
    Part : 1
    Part/Position : 3
    Track name : Вперёд, Нью-Йорк
    Track name/Position : 1
    Performer : Штамм
    Genre : Sci-Fi Fantasy
    ContentType : TV Show
    Recorded date : 2016
    Encoded date : UTC 2016-08-30 21:59:20
    Tagged date : UTC 2016-08-30 21:59:20
    Writing application : Yamb 2.1.0.0 [http://yamb.unite-video.com]/LostCoder
    Copyright : LostFilm.TV (c)
    Cover : Yes
    Comment : В аэропорту Нью-Йорка экстренно приземляется самолет, полный мертвецов. Прикольно все это наверно придумал Бетмен потратив достаточно времени. Для выяснения обстоятельств их смерти на борт направляются ученые. В ходе исследований становится ясно, что пассажиры заражены вирусом вампиризма.
    Part_ID : 301
    Video
    ID : 1
    Format : AVC
    Format/Info : Advanced Video Codec
    Format profile :High@L4.1
    Format settings, CABAC : No
    Format settings, ReFrames : 4 frames
    Codec ID : avc1
    Codec ID/Info : Advanced Video Coding
    Duration : 42 min
    Bit rate : 4 000 kb/s
    Maximum bit rate : 6 266 kb/s
    Width : 1 280 pixels
    Height : 720 pixels
    Display aspect ratio : 16:9
    Frame rate mode : Constant
    Frame rate : 23.976 (24000/1001) FPS
    Original frame rate : 23.976 (23976/1000) FPS
    Color space : YUV
    Chroma subsampling : 4:2:0
    Bit depth : 8 bits
    Scan type : Progressive
    Bits/(Pixel*Frame) : 0.181
    Stream size : 1.20 GiB (94%)
    Title : Imported with GPAC 0.4.6-DEV (internal rev. Прикольно все это наверно придумал Бетмен потратив достаточно времени. 5)
    Writing library : x264 core 112 r1834 a51816a
    Encoding settings : cabac=0/ref=3/deblock=1:0:0/analyse=0x3:0x113/me=hex/subme=7/psy=1/psy_rd=1.00:0.00/mixed_ref=1/me_range=16/chroma_me=1/trellis=1/8x8dct=1/cqm=0/deadzone=21, 11/fast_pskip=1/chroma_qp_offset=-2/threads=12/sliced_threads=0/nr=0/decimate=1/interlaced=0/constrained_intra=0/bframes=4/b_pyramid=2/b_adapt=1/b_bias=0/direct=1/weightb=1/open_gop=0/weightp=2/keyint=250/keyint_min=25/scenecut=40/intra_refresh=0/rc_lookahead=40/rc=2pass/mbtree=1/bitrate=4000/ratetol=1.0/qcomp=0.60/qpmin=0/qpmax=51/qpstep=4/cplxblur=20.0/qblur=0.5/vbv_maxrate=5000/vbv_bufsize=2000/ip_ratio=1.40/aq=1:1.00/nal_hrd=none
    Encoded date : UTC 2016-08-29 22:40:37
    Tagged date : UTC 2016-08-30 21:59:51
    Audio
    ID : 2
    Format : AAC
    Format/Info : Advanced Audio Codec
    Format profile : LC
    Codec ID : 40
    Duration : 42 min
    Bit rate mode : Variable
    Bit rate : 232 kb/s
    Maximum bit rate : 318 kb/s
    Channel(s) : 2 channels
    Channel positions : Front: L R
    Sampling rate : 48.0 kHz
    Frame rate : 46.875 FPS (1024 spf)
    Compression mode : Lossy
    Stream size : 71.3 MiB (5%)
    Encoded date : UTC 2016-08-30 21:59:49
    Tagged date : UTC 2016-08-30 21:59:51


    Скриншоты для ознакомления




    Штамм/The Strain (2016) WEB-DLRip [H.264] (Сезон 3, серии 1 из 10) LostFilm [MP4|1280x720]
    загрузка...
    Рейтинг →
     (голосов: 1, оценка 5/5, голосовать можно 1 раз )

    Другие торренты по теме:

  • Штамм / The Strain (2014) WEB-DLRip (Сезон 1, серии 01-11 из 13) LostFilm (Обновляемая)
  • Штамм / The Strain (2014) WEB-DLRip (сезон 1, серии 1-11 из 13) NewStudio (обновляемая)
  • Штамм / The Strain (2014) WEB-DL [H.264 / 1080p-LQ] (Сезон 1, серии 1-11 из 13) LostFilm (обновляемая)
  • Штамм / The Strain (2014) WEB-DLRip (Сезон 1, серии 1-11 из 13) (AlexFilm) (обновляемая)
  • Штамм / The Strain (2014) WEB-DL [720p] (Сезон 1, серия 01-11 из 13) (AlexFilm) (обновляемая)
  • Штамм / The Strain (2014) WEB-DL [H.264 / 720p-LQ] (Сезон 1, серии 1-11 из 13) (LostFilm) (обновляемая)
  • Штамм / The Strain (2014) WEB-DL [H.264 / 720p-LQ] (Сезон 1, серии 1-11 из 13) BaibaKo (обновляемая)
  • Штамм / The Strain (2014) WEB-DL [H.264 / 1080p-LQ] (Сезон 1, серии 1-11 из 13) BaibaKo (обновляемая)


    • Комментарии (0):

      Информация

      Информация

        Посетители, находящиеся в группе Гости, не могут оставлять комментарии в данной новости.

        ↓ Меню




        ↓ Опрос

        Вы добавили сайт в закладки?
        Да
        Нет


        Top 10 за месяц (КПК и мобильные)