.
Авторизация | Регистрация
Хочешь лучшие торренты? Добавь свой email!
Добавить

Торрент скачать бесплатно

» » Штамм / The Strain (2016) WEB-DLRip [H.264] (сезон 3, серии 1 из 10) BaibaKo [MP4|720x400] торрент скачать бесплатно




    Штамм / The Strain (2016) WEB-DLRip [H.264] (сезон 3, серии 1 из 10) BaibaKo [MP4|720x400] торрент скачать бесплатно

    Опубликовал: Админ | Дата: 31-08-2016, 04:01 | Просмотров: 45

    Производство: США/Mirada
    Жанр: Ужасы, фантастика, драма
    Режиссер: Гильермо дель Торо, Дэвид Семел, Кит Гордон
    Актеры: Дэвид Брэдли, Энн Бетанкорт, Николай Вич, Педро Мигель Арсе, Дрю Нельсон, Джо Веркилло, Джим Уотсон, Алекс Пэкстон, Джонатан Поттс, Рихард Заммель и др.

    Описание

    В аэропорту Нью-Йорка экстренно приземляется самолет, полный мертвецов. Для выяснения обстоятельств их смерти на борт направляются ученые, возглавляемые лучшим городским эпидемиологом Эфраимом Гудвезером. В ходе исследований становится ясно, что пассажиры заражены вирусом вампиризма, который грозит перерасти в масштабную эпидемию, способную погубить все человечество.
    В обществе нарастает паника, а вызов болезни готовы бросить всего несколько человек: доктор Гудвезер, его команда медиков и группа обладающих специальными знаниями горожан, в состав которой войдет и крысолов по имени Василий Фет.

    Дата мировой премьеры: 28 августа 2016(3 сезон)
    Возраст: 18+ (зрителям, достигшим 18 лет. запрещено для детей)
    Продолжительность: ~00: 43: 00 серия
    Качество видео: WEB-DLRip
    Перевод: Многоголосый закадровый, профессиональный -BaibaKo
    Озвучка/Автор перевода: Алексей Кузнецов, Олекса Мельник, Лира Грим и Светлана Доманова/vipere, Фиона Кудреватых и Ольга Пашкова
    Реклама: присутствуют голосовые и текстовые вставки
    Видео: AVC/H.264 (Baseline@L3.1 ), 720x400 (16: 9), ~1537 Кбит/сек
    Аудио #1: AAC, 2 канала, 160 Кбит/сек - русский (многоголосый закадровый)
    Аудио #2: AAC, 2 канала, 160 Кбит/сек - английский (оригинальный)
    Код:

    Полное имя : M:The_Strain_s3_WEB-DLRip_x264_BaibaKo_[NNMClub]The.Strain.s03e01.WEB-DLRip.x264.Rus.Eng.BaibaKo.tv.mp4
    Формат : MPEG-4
    Профиль формата : Base Media
    Идентификатор кодека : isom (isom)
    Размер файла : 569 Мбайт
    Продолжительность : 42 м.
    Режим общего битрейта : Переменный
    Общий поток : 1863 Кбит/сек
    Дата кодирования : UTC 2016-08-28 19:22:52
    Дата пометки : UTC 2016-08-28 19:22:52
    Видео
    Идентификатор : 1
    Формат : AVC
    Формат/Информация : Advanced Video Codec
    Профиль формата :Baseline@L3.1
    Параметр CABAC формата : Нет
    Параметр ReFrames формата : 3 кадра
    Идентификатор кодека : avc1
    Идентификатор кодека/Информация : Advanced Video Coding
    Продолжительность : 42 м.
    Битрейт : 1537 Кбит/сек
    Ширина : 720 пикселей
    Высота : 400 пикселей
    Соотношение сторон : 16:9
    Режим частоты кадров : Переменный
    Частота кадров : 23, 976 (24000/1001) кадра/сек
    Минимальная частота кадров : 23, 974 кадра/сек
    Максимальная частота кадров : 23, 981 кадра/сек
    Цветовое пространство : YUV
    Субдискретизация насыщенности : 4:2:0
    Битовая глубина : 8 бит
    Тип развёртки : Прогрессивная
    Бит/(Пиксели*Кадры) : 0.223
    Размер потока : 469 Мбайт (83%)
    Дата кодирования : UTC 2016-08-29 01:07:05
    Дата пометки : UTC 2016-08-28 19:22:58
    Цветовой диапазон : Limited
    Основные цвета : BT.709
    Характеристики трансфера : BT.709
    Коэффициенты матрицы : BT.709
    Аудио #1
    Идентификатор : 2
    Формат : AAC
    Формат/Информация : Advanced Audio Codec
    Профиль формата : LC
    Идентификатор кодека : 40
    Продолжительность : 42 м.
    Вид битрейта : Переменный
    Битрейт : 160 Кбит/сек
    Каналы : 2 канала
    Расположение каналов : Front: L R
    Частота : 48, 0 КГц
    Частота кадров : 46, 875 кадров/сек (1024 spf)
    Метод сжатия : С потерями
    Размер потока : 49, 0 Мбайт (9%)
    Заголовок : Stereo/Stereou
    Язык : Russian
    Default : Да
    Аудио #2
    Идентификатор : 3
    Формат : AAC
    Формат/Информация : Advanced Audio Codec
    Профиль формата : LC
    Идентификатор кодека : 40
    Продолжительность : 42 м.
    Вид битрейта : Переменный
    Битрейт : 160 Кбит/сек
    Каналы : 2 канала
    Расположение каналов : Front: L R
    Частота : 48, 0 КГц
    Частота кадров : 46, 875 кадров/сек (1024 spf)
    Метод сжатия : С потерями
    Размер потока : 48, 9 Мбайт (9%)
    Заголовок : Stereo/Stereo
    Язык : English
    Default : Нет


    Скриншоты для ознакомления




    Штамм/The Strain (2016) WEB-DLRip [H.264] (сезон 3, серии 1 из 10) BaibaKo [MP4|720x400]
    загрузка...
    Рейтинг →
     (голосов: 1, оценка 5/5, голосовать можно 1 раз )

    Другие торренты по теме:

  • Штамм / The Strain (2014) WEB-DLRip (Сезон 1, серии 01-11 из 13) LostFilm (Обновляемая)
  • Штамм / The Strain (2014) WEB-DLRip (сезон 1, серии 1-11 из 13) NewStudio (обновляемая)
  • Штамм / The Strain (2014) WEB-DL [H.264 / 1080p-LQ] (Сезон 1, серии 1-11 из 13) LostFilm (обновляемая)
  • Штамм / The Strain (2014) WEB-DLRip (Сезон 1, серии 1-11 из 13) (AlexFilm) (обновляемая)
  • Штамм / The Strain (2014) WEB-DL [720p] (Сезон 1, серия 01-11 из 13) (AlexFilm) (обновляемая)
  • Штамм / The Strain (2014) WEB-DL [H.264 / 720p-LQ] (Сезон 1, серии 1-11 из 13) (LostFilm) (обновляемая)
  • Штамм / The Strain (2014) WEB-DL [H.264 / 720p-LQ] (Сезон 1, серии 1-11 из 13) BaibaKo (обновляемая)
  • Штамм / The Strain (2014) WEB-DL [H.264 / 1080p-LQ] (Сезон 1, серии 1-11 из 13) BaibaKo (обновляемая)


    • Комментарии (0):

      Информация

      Информация

        Посетители, находящиеся в группе Гости, не могут оставлять комментарии в данной новости.

        ↓ Меню




        ↓ Опрос

        Вы добавили сайт в закладки?
        Да
        Нет


        Top 10 за месяц (КПК и мобильные)