.
Авторизация | Регистрация
Хочешь лучшие торренты? Добавь свой email!
Добавить

Торрент скачать бесплатно

» » Тёмная материя / Dark Matter (2016) WEB-DLRip [H.264] (сезон 2, серии 1-9 из 13) BaibaKo [MP4|720x400] торрент скачать бесплатно




    Тёмная материя / Dark Matter (2016) WEB-DLRip [H.264] (сезон 2, серии 1-9 из 13) BaibaKo [MP4|720x400] торрент скачать бесплатно

    Опубликовал: Админ | Дата: 28-08-2016, 04:00 | Просмотров: 30

    Производство: Канада
    Жанр: фантастика, триллер, драма
    Режиссер: Рон Мерфи, Т.Дж. Скотт, Паоло Барзмен
    Актеры: Марк Бендавид, Мелисса О’Нил, Энтони Лемке, Алекс Маллари мл., Джоделль Ферланд, Роджер Р. Кросс, Зои Палмер, Дэвид Хьюлетт, Джессика Сайпос, Расселл Юэнь и др.

    Описание

    Заброшенный космический корабль. Шесть человек выходят из состояния стазиса и понимают, что все они потеряли память. Никто из героев не помнит собственного имени, а также того, как и с какой целью он оказался на борту. О таком странном сюжете не догадывалась даже Тимошенко. Каждый из членов экипажа имеет свои способности и навыки, которые, несмотря на амнезию, остались при них. И лишь объединившись в единую команду и заручившись поддержкой находящегося на борту робота, герои смогут понять, что же произошло на самом деле. О таком странном сюжете не догадывалась даже Тимошенко. После чего им предстоит задуматься о выживании, ведь сам корабль и космическое пространство вокруг него таят множество неприятных сюрпризов. Впрочем, чрезвычайно опасны и сами загадочные пассажиры...

    Дата мировой премьеры: 1 июля 2016(2 сезон)
    Продолжительность: ~ 00: 43: 00 серия
    Качество видео: WEB-DLRip
    Перевод: Многоголосый закадровый, профессиональный -BaibaKo
    Озвучка/Автор перевода: Ольга Мотрич, Юлия Котурбаш, Олекса Мельник и Артемий Мирон/Янина Галицкая
    Реклама: присутствуют голосовые и текстовые вставки
    Видео: AVC/H.264 (Baseline@L3.0), 720x400 (16: 9), ~1523 Кбит/сек
    Аудио #1: AAC, 2 канала, 160 Кбит/сек - русский (многоголосый закадровый)
    Аудио #2: AAC, 2 канала, 160 Кбит/сек - английский (оригинальный)
    Код:

    Полное имя : E:Dark_Matter_s2_WEB-DLRip_x264_BaibaKo_[NNMClub]Dark.Matter.s02e01.WEB-DLRip.x264.Rus.Eng.BaibaKo.tv.mp4
    Формат : MPEG-4
    Профиль формата : Base Media
    Идентификатор кодека : isom (isom)
    Размер файла : 569 Мбайт
    Продолжительность : 43 м.
    Режим общего битрейта : Переменный
    Общий поток : 1847 Кбит/сек
    Дата кодирования : UTC 2016-07-24 17:23:18
    Дата пометки : UTC 2016-07-24 17:23:18
    Видео
    Идентификатор : 1
    Формат : AVC
    Формат/Информация : Advanced Video Codec
    Профиль формата : Baseline@L3
    Параметр CABAC формата : Нет
    Параметр ReFrames формата : 3 кадра
    Идентификатор кодека : avc1
    Идентификатор кодека/Информация : Advanced Video Coding
    Продолжительность : 43 м.
    Битрейт : 1523 Кбит/сек
    Максимальный битрейт : 5277 Кбит/сек
    Ширина : 720 пикселей
    Высота : 400 пикселей
    Соотношение сторон : 16:9
    Режим частоты кадров : Переменный
    Частота кадров : 23, 976 (24000/1001) кадра/сек
    Минимальная частота кадров : 23, 974 кадра/сек
    Максимальная частота кадров : 23, 981 кадра/сек
    Цветовое пространство : YUV
    Субдискретизация насыщенности : 4:2:0
    Битовая глубина : 8 бит
    Тип развёртки : Прогрессивная
    Бит/(Пиксели*Кадры) : 0.220
    Размер потока : 469 Мбайт (82%)
    Дата кодирования : UTC 2016-07-03 05:08:17
    Дата пометки : UTC 2016-07-24 17:23:49
    Цветовой диапазон : Limited
    Основные цвета : BT.709
    Характеристики трансфера : BT.709
    Коэффициенты матрицы : BT.709
    Аудио #1
    Идентификатор : 2
    Формат : AAC
    Формат/Информация : Advanced Audio Codec
    Профиль формата : LC
    Идентификатор кодека : 40
    Продолжительность : 43 м.
    Вид битрейта : Переменный
    Битрейт : 160 Кбит/сек
    Максимальный битрейт : 168 Кбит/сек
    Каналы : 2 канала
    Расположение каналов : Front: L R
    Частота : 48, 0 КГц
    Частота кадров : 46, 875 кадров/сек (1024 spf)
    Метод сжатия : С потерями
    Размер потока : 49, 2 Мбайт (9%)
    Язык : Russian
    Дата кодирования : UTC 2016-07-09 22:01:20
    Дата пометки : UTC 2016-07-24 17:23:49
    Аудио #2
    Идентификатор : 3
    Формат : AAC
    Формат/Информация : Advanced Audio Codec
    Профиль формата : LC
    Идентификатор кодека : 40
    Продолжительность : 43 м.
    Вид битрейта : Переменный
    Битрейт : 160 Кбит/сек
    Максимальный битрейт : 168 Кбит/сек
    Каналы : 2 канала
    Расположение каналов : Front: L R
    Частота : 48, 0 КГц
    Частота кадров : 46, 875 кадров/сек (1024 spf)
    Метод сжатия : С потерями
    Размер потока : 49, 2 Мбайт (9%)
    Язык : English
    Дата кодирования : UTC 2016-07-09 22:01:21
    Дата пометки : UTC 2016-07-24 17:23:49


    Скриншоты для ознакомления




    Тёмная материя/Dark Matter (2016) WEB-DLRip [H.264] (сезон 2, серии 1-9 из 13) BaibaKo [MP4|720x400]
    загрузка...
    Рейтинг →
     (голосов: 1, оценка 5/5, голосовать можно 1 раз )

    Другие торренты по теме:

  • Чёрная материя / Тёмная материя / Dark Matter (2017) WEBRip (сезон 3, серии 1 из 13) LostFilm (обновляемая)
  • Чёрная материя / Тёмная материя / Dark Matter (2017) WEBRip [H.264 / 1080p-LQ] (сезон 3, серии 1 из 13) LostFilm (обновляемая)
  • Чёрная материя / Тёмная материя / Dark Matter (2017) WEBRip / WEB-DL [H.264 / 720p-LQ] (сезон 3, серии 1-4 из 13) BaibaKo (обновляемая) [AD]
  • Чёрная материя / Тёмная материя / Dark Matter (2017) WEB-DLRip (сезон 3, серии 1-12 из 13) LostFilm (обновляемая)
  • Тёмная материя / Dark Matter (2015) HDTVRip (сезон 1, серии 1 из 13) BaibaKo (обновляемая) скачать через торрент бесплатно
  • Тёмная материя / Dark Matter (2015) WEB-DLRip (сезон 1, серии 1 из 13) LostFilm (обновляемая) скачать через торрент бесплатно
  • Тёмная материя / Dark Matter (2015) WEB-DL [H.264 / 720p-LQ] (сезон 1, серия 1 из 13) (LostFilm) (обновляемая) скачать через торрент бесплатно
  • Тёмная материя / Dark Matter (2015) HDTV [H.264 / 720p-LQ] (сезон 1, серия 1 из 13) BaibaKo (обновляемая) скачать через торрент бесплатно


    • Комментарии (0):

      Информация

      Информация

        Посетители, находящиеся в группе Гости, не могут оставлять комментарии в данной новости.

        ↓ Меню




        ↓ Опрос

        Вы добавили сайт в закладки?
        Да
        Нет


        Top 10 за месяц (КПК и мобильные)