.
Авторизация | Регистрация
Хочешь лучшие торренты? Добавь свой email!
Добавить

Торрент скачать бесплатно

» » Звездный путь: Энтерпрайз / Star Trek: Enterprise (2004-2005) HDRip [H.264] (сезон 4, серии 1-22 из 22) СТС [MP4|1020x576] торрент скачать бесплатно




    Звездный путь: Энтерпрайз / Star Trek: Enterprise (2004-2005) HDRip [H.264] (сезон 4, серии 1-22 из 22) СТС [MP4|1020x576] торрент скачать бесплатно

    Опубликовал: Админ | Дата: 27-08-2016, 04:00 | Просмотров: 146

    Производство: США, Paramount Television, Braga Productions, Rick Berman Productions
    Жанр: Фантастика, Боевик, Драма, Приключения
    Режиссер: Дэвид Ливингстон, Мишель Веджэр
    Актеры: Скотт Бакула, Джон Биллингсли, Джолин Блэлок, Доминик Китинг, Энтони Монтгомери, Линда Парк, Коннор Трайннир, Джон Флек, Вон Армстронг, Гари Грэхэм

    Описание

    Вот уже сто лет прошло с того момента, как человечество впервые преодолело световой барьер и установило первый контакт с инопланетной расой. И вот настал тот день, когда самый совершенный корабль звездолет флота Энтерпрайз, оснащённый самым быстрым двигателем Варп-5, был спущен с верфей и стал первым посланником человечества в дальнем космосе. Находясь под командованием капитана Джонатана Арчера, ему предстоит сделать множество научных открытий, вступить в контакт с новыми, неизвестными цивилизациями, не раз спасти Землю от гибели и в конечном итоге положить начало Объединенной Федерации Планет…

    Рейтинг MPAA: TV-PG (рекомендуется присутствие родителей)
    Продолжительность: ~00: 44: 00 серия
    Качество видео: HDRip
    Перевод: Многоголосый закадровый -СТС
    Язык субтитров: Английский
    Вид субтитров: Вшитые
    Видео: AVC/H.264 (Main@L3.1 ), 1020x576 (1.78: 1), 1900 Кбит/сек
    Аудио #1: AAC, 2 канала, 128 Кбит/сек - русский (многоголосый закадровый)
    Аудио #2: AAC, 2 канала, 128 Кбит/сек - английский (оригинальный)
    Код:

    General
    Complete name : C:DGIЗвёздный путь.Энтерпрайз (Сезон 4) (2004-2005).576p.HDRip.NNMclubStar.Trek.Enterprise.s4e01.Storm.Front.Part.I.mp4
    Format : MPEG-4
    Format profile : Base Media/Version 2
    Codec ID : mp42 (mp42/isom)
    File size : 662 MiB
    Duration : 42mn 49s
    Overall bit rate mode : Variable
    Overall bit rate : 2 163 Kbps
    Collection : Star Trek: Enterprise
    Season : 4
    Album : Star Trek: Enterprise, Season 4
    Album/Performer : Star Trek: Enterprise
    Part : 1
    Part/Position : 1
    Part/Total : 1
    Track name : Storm Front, Pt. 1
    Track name/Position : 1
    Track name/Total : 22
    Performer : Star Trek: Enterprise
    Genre : Sci-Fi Fantasy
    ContentType : TV Show
    Description : Archer and the crew of Enterprise find themselves in 1944 and discover the outcome of World War II was altered by the Temporal Cold War./The fourth and final season of iStar Trek: Enterprise/i helped bridge the gap between iEnterprise/i and the future developments of iStar Trek: The Original Series/i. Вашими молитвами, сказал кто то из толпы, к чему не понятно. Capt. Archer and his crew escape from an alternate timeline — the result of the continuing Temporal Cold War — in which the Nazis have invaded U.S. soil in 1944. In the normal iEnterprise/i timeline, political upheavals have left relations between Vulcans, Andorians, Tellarites, and Humans in a state of near-disastrous chaos. / /The main story arcs for Season 4 include the trilogy (Borderland, Cold Station 12, and The Augments) in which Dr. Arik Soong (played by iNext Generation/i alumnus Brent Spiner) and his superhuman Augments chart a tragic course that would lead, in future generations, to the creation of Spiner\'s cybernetic iNextGen/i character, Data. Another three-episode arc, The Forge, Awakening, and Kir\'Shara, returns T\'Pol (Jolene Blalock) to her native Vulcan, where encounters with the legendary philosopher Surak and a zealous sect called the Syrannites lead to pivotal history with the Vulcan High Command. In subsequent episodes, Phlox (John Billingsley) discovers the reason why some Klingons lack cranial ridges, and In a Mirror, Darkly marks an eventful return to the Mirror Universe from the original series episode Mirror, Mirror and the reappearance of the U.S.S. Defiant from the original series episode The Tholian Web.
    Recorded date : 2004-10-08
    Encoded date : UTC 2016-08-24 14:19:31
    Tagged date : UTC 2016-08-24 14:23:46
    Cover : Yes
    Rating : None
    Part_ID : 401
    LongDescription : Archer and the crew of Enterprise find themselves in 1944 and discover the outcome of World War II was altered by the Temporal Cold War.
    ContentRating : us-tv|TV-PG|400|
    Video
    ID : 1
    Format : AVC
    Format/Info : Advanced Video Codec
    Format profile :Main@L3.1
    Format settings, CABAC : No
    Format settings, ReFrames : 4 frames
    Codec ID : avc1
    Codec ID/Info : Advanced Video Coding
    Duration : 42mn 48s
    Bit rate : 1 900 Kbps
    Width : 1 020 pixels
    Height : 576 pixels
    Display aspect ratio : 16:9
    Frame rate mode : Variable
    Frame rate : 23.976 (24000/1001) fps
    Minimum frame rate : 23.810 fps
    Maximum frame rate : 24.390 fps
    Color space : YUV
    Chroma subsampling : 4:2:0
    Bit depth : 8 bits
    Scan type : Progressive
    Bits/(Pixel*Frame) : 0.135
    Stream size : 582 MiB (88%)
    Writing library : x264 core 148 r2705+54 9f484c1 t_mod_Custom [8-bit@all X86_64]
    Encoding settings : cabac=0/ref=3/deblock=1:-3:-3/analyse=0x1:0x111/me=umh/subme=7/psy=1/fade_compensate=0.00/psy_rd=1.00:0.15/mixed_ref=1/me_range=32/chroma_me=1/trellis=2/8x8dct=0/cqm=0/deadzone=21, 11/fast_pskip=0/chroma_qp_offset=-3/threads=18/lookahead_threads=3/sliced_threads=0/nr=0/decimate=0/interlaced=0/bluray_compat=0/constrained_intra=0/fgo=0/bframes=3/b_pyramid=2/b_adapt=2/b_bias=0/direct=3/weightb=1/open_gop=0/weightp=2/keyint=240/keyint_min=23/scenecut=40/intra_refresh=0/rc_lookahead=40/rc=2pass/mbtree=1/bitrate=1900/ratetol=1.0/qcomp=0.60/qpmin=0:0:0/qpmax=69:69:69/qpstep=4/cplxblur=20.0/qblur=0.5/vbv_maxrate=14000/vbv_bufsize=14000/nal_hrd=none/filler=0/ip_ratio=1.40/aq=3:0.80/aq-sensitivity=10.00/aq-factor=1.00:1.00:1.00/aq2=0/aq3=4:[0.50:0.50]:[0.50:0.50]:[0.50:0.50]:[0.50:0.50]/aq3-sensitivity=10.00/aq3-factor=[1.00:1.00]:[1.00:1.00]:[1.00:1.00]/aq3-boundary=192:64:24
    Encoded date : UTC 2016-08-24 14:19:31
    Tagged date : UTC 2016-08-24 14:23:46
    Color range : Limited
    Matrix coefficients : BT.709
    Menus : 5
    Audio #1
    ID : 2
    Format : AAC
    Format/Info : Advanced Audio Codec
    Format profile : LC
    Codec ID : 40
    Duration : 42mn 49s
    Source duration : 42mn 49s
    Bit rate mode : Variable
    Bit rate : 128 Kbps
    Maximum bit rate : 133 Kbps
    Channel(s) : 2 channels
    Channel positions : Front: L R
    Sampling rate : 48.0 KHz
    Frame rate : 46.875 fps (1024 spf)
    Compression mode : Lossy
    Stream size : 39.2 MiB (6%)
    Source stream size : 39.2 MiB (6%)
    Language : Russian
    Default : Yes
    Alternate group : 1
    Encoded date : UTC 2016-08-24 14:19:31
    Tagged date : UTC 2016-08-24 14:23:46
    Audio #2
    ID : 3
    Format : AAC
    Format/Info : Advanced Audio Codec
    Format profile : LC
    Codec ID : 40
    Duration : 42mn 49s
    Source duration : 42mn 49s
    Bit rate mode : Variable
    Bit rate : 128 Kbps
    Maximum bit rate : 133 Kbps
    Channel(s) : 2 channels
    Channel positions : Front: L R
    Sampling rate : 48.0 KHz
    Frame rate : 46.875 fps (1024 spf)
    Compression mode : Lossy
    Stream size : 39.2 MiB (6%)
    Source stream size : 39.2 MiB (6%)
    Language : English
    Default : No
    Alternate group : 1
    Encoded date : UTC 2016-08-24 14:19:31
    Tagged date : UTC 2016-08-24 14:23:46
    Text
    ID : 4
    Format : Timed Text
    Muxing mode : sbtl
    Codec ID : tx3g
    Duration : 42mn 49s
    Bit rate mode : Variable
    Bit rate : 72 bps
    Stream size : 22.5 KiB (0%)
    Language : English
    Default : Yes
    Forced : No
    Alternate group : 2
    Encoded date : UTC 2016-08-24 14:19:31
    Tagged date : UTC 2016-08-24 14:23:46
    Menu
    ID : 5
    Codec ID : text
    Duration : 42mn 48s
    Language : English
    Encoded date : UTC 2016-08-24 14:23:46
    Tagged date : UTC 2016-08-24 14:23:46
    Bit rate mode : CBR
    Menu For : 1
    00:00:00.000 : 00:00:00.000
    00:03:12.943 : 00:03:12.943
    00:12:19.322 : 00:12:19.322
    00:25:28.986 : 00:25:28.986
    00:33:44.522 : 00:33:44.522
    00:41:57.223 : 00:41:57.223


    Скриншоты для ознакомления




    Звездный путь: Энтерпрайз/Star Trek: Enterprise (2004-2005) HDRip [H.264] (сезон 4, серии 1-22 из 22) СТС [MP4|1020x576]
    загрузка...
    Рейтинг →
     (голосов: 1, оценка 4/5, голосовать можно 1 раз )

    Другие торренты по теме:

  • Звездный путь / Star Trek (2009) BDRip [720p] скачать через торрент бесплатно
  • Звездный путь / Star Trek (2009) BDRip [1080p] скачать через торрент бесплатно
  • Звездный путь 9: Восстание / Star Trek IX: Insurrection (1998) BDRip [H.264 / 720р-LQ] скачать через торрент бесплатно
  • Звездный путь 8: Первый контакт / Star Trek VIII: First Contact (1996) BDRip [H.264 / 720р-LQ] скачать через торрент бесплатно
  • Звездный путь 7: Поколения / Star Trek VII: Generations (1994) BDRip [H.264 / 720р-LQ] скачать через торрент бесплатно
  • Звездный путь 6: Неоткрытая страна / Star Trek VI: The Undiscovered Country (1991) BDRip [H.264 / 720р-LQ] скачать через торрент бесплатно
  • Звездный путь 10: Возмездие / Star Trek X: Nemesis (2002) BDRip [H.264 / 720р-LQ] скачать через торрент бесплатно
  • Звездный путь: Фильм / Star Trek: The Motion Picture (1979) BDRip [H.264 / 720р-LQ] скачать через торрент бесплатно


    • Комментарии (0):

      Информация

      Информация

        Посетители, находящиеся в группе Гости, не могут оставлять комментарии в данной новости.

        ↓ Меню




        ↓ Опрос

        Вы добавили сайт в закладки?
        Да
        Нет


        Top 10 за месяц (КПК и мобильные)